<?xml version="1.0" standalone="no"?>
<!DOCTYPE svg PUBLIC "-//W3C//DTD SVG 1.1//EN" "http://www.w3.org/Graphics/SVG/1.1/DTD/svg11.dtd">
<svg xmlns="http://www.w3.org/2000/svg">
<defs >
<font id="RobotoMono" horiz-adv-x="1202" ><font-face
    font-family="Roboto Mono"
    units-per-em="2048"
    panose-1="0 0 0 9 0 0 0 0 0 0"
    ascent="2146"
    descent="-555"
    alphabetic="0" />
<glyph unicode=" " />
<glyph unicode="!" d="M648 471L819 1456H637L466 471H648ZM384 94Q384 70 392 50T416 16Q430 2 450 -5T495 -12Q520 -11 541 -2T577 22Q591 37 599 56T608 100Q608 124 600 144T577 180Q562 195 541 203T496 210Q472 209 452 201T418 178Q402 163 394 141T384 94Z" />
<glyph unicode="&quot;" d="M619 1419L637 1536H490L475 1441L414 1057H542L619 1419ZM965 1419L985 1536H838L821 1434L761 1057H888L965 1419Z" />
<glyph unicode="#" d="M651 410L501 0H646L795 410H1037L1061 547H844L972 901H1195L1219 1040H1022L1174 1456H1030L877 1040H627L780 1456H635L483 1040H209L184 901H433L304 547H50L26 410H256L106 0H251L400 410H651ZM449 547L577 901H828L699 547H449Z" />
<glyph unicode="$" d="M844 382Q830 261 740 199T534 140Q404 142 353 226T310 429H129Q119 258 197 135T450 -15L415 -208H561L596 -16Q766 2 889 100T1025 384Q1031 471 1008 537T939 654Q893 704 830 741T693 809Q646 827 603 850T528 904Q495 935 478 976T467
1075Q479 1183 553 1250T741 1315Q866 1311 903 1211T934 1008H1114Q1124 1166 1066 1301T835 1470L875 1692H729L690 1472Q521 1452 410 1349T287 1072Q281 985 305 919T376 801Q422 749 486 711T624 644Q669 627 711 604T785 550Q817 518 833 477T844 382Z" />
<glyph unicode="%" d="M141 1193L134 1117Q130 1061 143 1011T185 922Q214 883 258 860T363 835Q425 833 476 855T566 916Q603 955 626 1006T657 1117L664 1194Q668 1250 656 1301T614 1391Q585 1430 541 1453T436 1478Q373 1479 322 1457T233 1396Q195 1357 172
1305T141 1193ZM272 1115L279 1195Q282 1225 292 1254T320 1307Q337 1330 362 1344T422 1358Q456 1357 477 1342T510 1304Q522 1280 525 1252T527 1195L520 1116Q516 1086 506 1057T479 1006Q462 983 437 969T377 955Q343 955 322 970T289 1008Q277 1031 274 1059T272
1115ZM575 337L568 260Q564 204 577 154T619 65Q648 26 693 3T798 -22Q860 -23 911 -1T1001 59Q1038 97 1061 149T1092 260L1100 338Q1104 394 1091 444T1049 534Q1020 573 976 596T871 621Q808 622 757 601T667 540Q629 501 606 449T575 337ZM706 258L713 339Q717
369 727 398T755 450Q772 473 797 487T858 501Q892 500 913 485T946 447Q957 424 960 396T962 339L955 259Q951 229 941 200T914 148Q897 125 872 111T812 97Q778 98 757 112T724 151Q712 174 708 202T706 258ZM319 189L1047 1221L943 1286L216 254L319 189Z" />
<glyph unicode="&amp;" d="M69 366Q57 193 165 88T440 -19Q540 -21 628 14T795 108L856 0H1058L925 235Q1014 326 1063 435T1126 672H966Q952 587 922 512T842 367L612 763L726 850Q811 912 885 986T966 1176Q974 1300 897 1386T695 1477Q529 1481 425 1379T308
1119Q305 1074 311 1032T331 948Q343 907 361 867T398 788L360 763Q311 731 265 695T180 615Q134 563 105 502T69 366ZM446 131Q343 133 291 199T251 365Q257 407 276 445T323 518Q350 552 382 581T447 636L478 661L718 231Q657 189 590 159T446 131ZM485 1121Q493
1198 544 1263T683 1326Q744 1326 771 1279T793 1177Q787 1112 751 1066T665 983L537 891Q525 918 514 946T495 1003Q487 1031 484 1061T485 1121Z" />
<glyph unicode="&apos;" d="M762 1416L781 1536H627L611 1439L550 1056L686 1057L762 1416Z" />
<glyph unicode="(" d="M345 587L343 576Q331 489 329 393T336 200Q345 102 368 6T431 -177Q470 -265 527 -340T663 -470L710 -358Q650 -304 610 -234T546 -83Q522 -3 512 83T501 255Q500 341 507 423T525 577L527 592Q547 723 583 854T676 1106Q733 1226 813 1332T1004
1520L977 1644Q882 1596 803 1527T658 1373Q593 1288 541 1192T451 994Q412 892 386 789T345 587Z" />
<glyph unicode=")" d="M821 585L823 596Q835 683 837 779T831 973Q821 1071 798 1167T736 1351Q696 1438 638 1513T501 1643L455 1531Q514 1477 553 1407T617 1257Q641 1176 651 1089T663 916Q664 830 657 748T640 595L638 580Q618 449 582 317T489 63Q432 -60
352 -167T160 -356L188 -471Q331 -400 440 -280T627 -17Q702 125 751 281T821 585Z" />
<glyph unicode="*" d="M567 918L265 595L398 484L657 835L808 471L960 576L760 904L1147 998L1122 1182L751 1034L845 1456H671L629 1031L294 1184L217 1014L567 918Z" />
<glyph unicode="+" d="M721 781L795 1206H614L540 781H147L114 597H509L430 146H611L689 597H1084L1116 781H721Z" />
<glyph unicode="," d="M530 44L559 219H363L331 40Q316 -47 282 -124T194 -271L304 -336Q345 -303 380 -264T444 -180Q476 -130 498 -73T530 44Z" />
<glyph unicode="-" d="M947 561L974 713H231L204 561H947Z" />
<glyph unicode="." d="M398 115Q398 56 437 18T537 -20Q598 -20 640 20T682 125Q682 188 642 227T541 264Q476 264 437 220T398 115Z" />
<glyph unicode="/" d="M285 -125L1148 1456H978L114 -125H285Z" />
<glyph unicode="0" d="M1051 559L1105 898Q1110 935 1111 975T1112 1047Q1110 1118 1091 1190T1036 1319Q993 1389 918 1431T734 1477Q649 1479 579 1458T453 1397Q396 1357 352 1302T276 1182Q243 1117 222 1045T190 898L136 557Q127 488 129 419T146 287Q160
223 188 168T261 72Q305 31 366 7T508 -20Q575 -22 632 -9T739 29Q814 68 870 133T966 276Q998 340 1019 412T1051 559ZM725 1325Q789 1323 831 1299T900 1235Q925 1195 935 1143T944 1034L322 602Q326 618 327 631T334 673L378 939Q385 986 397 1032T427 1120Q447
1165 474 1203T537 1269Q573 1297 620 1312T725 1325ZM517 130Q454 132 412 156T344 219Q318 258 308 309T298 416L917 844Q911 806 907 785T898 731L863 518Q856 473 845 428T816 342Q795 290 762 245T682 171Q649 150 608 139T517 130Z" />
<glyph unicode="1" d="M648 0L895 1456H876L314 1248L282 1071L678 1215L467 0H648Z" />
<glyph unicode="2" d="M942 0L966 151H263L709 575Q762 625 818 681T923 800Q970 863 1003 933T1043 1080Q1050 1168 1024 1240T947 1365Q895 1417 822 1445T663 1476Q562 1478 474 1446T317 1354Q249 1294 206 1211T153 1027L333 1028Q342 1094 367 1149T433
1245Q473 1284 528 1305T654 1325Q707 1323 748 1303T816 1248Q843 1214 854 1169T859 1072Q851 1010 822 954T751 847Q710 796 663 751T575 664L37 141L15 0H942Z" />
<glyph unicode="3" d="M416 817L389 667L529 666Q589 664 637 647T717 598Q749 566 764 519T772 410Q765 346 739 294T672 205Q631 168 577 149T457 131Q400 132 356 151T284 203Q255 236 242 282T232 384L52 385Q47 293 75 219T156 93Q208 40 283 11T448 -20Q547
-22 635 7T791 94Q858 151 900 232T952 414Q956 468 948 517T919 610Q897 653 861 686T773 742Q825 765 872 797T957 870Q994 911 1018 961T1047 1072Q1055 1163 1032 1237T959 1364Q909 1416 837 1445T674 1477Q583 1478 500 1450T351 1370Q285 1317 243 1242T190
1074L369 1075Q379 1132 404 1178T468 1258Q506 1291 556 1309T665 1326Q722 1324 762 1306T829 1254Q854 1221 863 1176T866 1076Q858 1011 829 963T754 882Q709 849 653 832T535 815L416 817Z" />
<glyph unicode="4" d="M878 489L1046 1456H847L48 457L27 338H671L612 0H793L852 338H1049L1075 489H878ZM259 489L790 1154L829 1212L697 489H259Z" />
<glyph unicode="5" d="M254 733L403 694Q459 737 516 761T646 784Q711 782 756 754T827 683Q853 639 862 584T865 470Q857 404 834 342T771 232Q731 184 674 156T544 130Q487 132 445 151T374 205Q345 239 330 284T312 384H143Q146 296 173 223T252 96Q302 42
373 12T535 -20Q645 -23 735 14T891 117Q957 183 997 274T1047 470Q1056 560 1040 645T982 799Q939 866 869 907T697 950Q633 951 574 936T459 887L575 1276H1146L1178 1456H451L254 733Z" />
<glyph unicode="6" d="M960 1458H940Q815 1458 712 1428T525 1342Q441 1287 377 1211T265 1043Q218 950 187 844T140 625L128 538Q117 441 133 343T197 165Q244 85 321 34T510 -20Q619 -23 707 17T859 127Q923 196 961 288T1009 482Q1017 569 1001 653T943 804Q901
870 832 911T665 955Q616 956 570 945T482 912Q445 893 411 867T346 809Q366 872 392 930T450 1037Q489 1097 539 1145T650 1228Q709 1259 779 1276T931 1292H943L960 1458ZM629 801Q694 799 735 768T801 690Q824 642 830 585T831 473Q824 410 801 348T739 237Q700
188 645 159T519 132Q470 134 434 154T374 206Q350 238 336 279T314 364Q307 407 307 451T311 532L319 596Q342 639 374 677T446 743Q485 771 531 787T629 801Z" />
<glyph unicode="7" d="M1180 1342L1198 1456H242L216 1294H977L191 0H389L1180 1342Z" />
<glyph unicode="8" d="M1121 1085Q1128 1172 1104 1243T1030 1365Q980 1416 910 1445T754 1476Q661 1478 580 1450T436 1368Q373 1314 335 1238T289 1067Q285 1013 295 963T331 868Q349 835 375 807T435 755Q375 729 323 694T231 612Q191 566 167 510T136 385Q128
292 155 218T237 92Q291 39 366 11T531 -20Q627 -22 714 6T870 90Q938 144 981 223T1033 402Q1037 455 1028 505T996 599Q973 643 938 680T856 744Q908 769 954 803T1036 879Q1071 921 1093 972T1121 1085ZM854 406Q848 344 821 293T752 205Q710 168 656 148T539
130Q482 131 438 150T366 204Q337 238 325 285T319 388Q326 449 352 502T420 594Q461 633 516 654T634 674Q691 672 734 651T807 593Q835 557 847 509T854 406ZM938 1082Q932 1028 910 981T851 898Q814 862 766 843T661 824Q610 825 572 844T509 897Q484 929 474
972T469 1064Q475 1118 497 1166T555 1251Q591 1286 639 1306T744 1325Q795 1324 833 1304T897 1251Q922 1217 932 1174T938 1082Z" />
<glyph unicode="9" d="M286 163H270L254 -2H277Q443 -2 570 47T789 185Q906 295 973 461T1068 820L1077 887Q1085 954 1083 1023T1066 1158Q1051 1222 1023 1279T950 1380Q905 1423 845 1449T704 1476Q634 1477 573 1461T459 1413Q398 1376 351 1323T271 1205Q244
1151 227 1090T203 965Q195 879 210 795T268 642Q310 574 378 532T545 487Q596 486 642 496T731 528Q768 547 801 573T865 633Q845 564 819 504T760 394Q718 331 662 283T532 205Q480 184 419 173T286 163ZM582 640Q517 642 476 674T412 756Q389 805 383 863T382
975Q389 1038 412 1101T474 1214Q513 1264 568 1294T696 1323Q746 1321 781 1301T841 1247Q865 1214 879 1172T901 1084Q907 1039 907 995T904 914L897 855Q874 811 842 772T769 702Q729 672 682 655T582 640Z" />
<glyph unicode=":" d="M447 115Q447 56 486 18T586 -20Q647 -20 689 20T731 125Q731 188 691 227T590 264Q525 264 486 220T447 115ZM598 991Q598 932 637 894T737 856Q798 856 840 896T882 1001Q882 1064 842 1103T741 1140Q676 1140 637 1096T598 991Z" />
<glyph unicode=";" d="M589 991Q589 932 628 894T728 856Q789 856 831 896T873 1001Q873 1064 833 1103T732 1140Q667 1140 628 1096T589 991ZM658 44L687 219H491L459 40Q444 -47 410 -124T322 -271L432 -336Q473 -303 508 -264T572 -180Q604 -130 626 -73T658 44Z" />
<glyph unicode="&lt;" d="M161 580L919 201L952 388L389 628L351 643L416 663L1046 903L1076 1104L187 726L161 580Z" />
<glyph unicode="=" d="M1066 780L1094 941H227L198 780H1066ZM994 365L1022 525H155L126 365H994Z" />
<glyph unicode="&gt;" d="M101 192L1025 572L1051 717L258 1096L226 913L822 669L867 653L796 633L137 393L101 192Z" />
<glyph unicode="?" d="M470 409L647 410Q658 484 684 540T770 645Q826 690 882 738T987 843Q1034 898 1066 963T1105 1106Q1112 1194 1088 1262T1014 1377Q965 1424 895 1449T740 1476Q654 1478 575 1455T434 1387Q371 1341 330 1273T279 1116L458 1117Q468 1167
493 1205T554 1268Q590 1293 635 1305T730 1317Q779 1316 817 1301T881 1258Q906 1230 916 1191T920 1101Q912 1047 886 1000T824 910Q787 868 745 831T664 761Q567 678 525 606T470 409ZM388 94Q388 46 419 16T499 -12Q547 -10 579 20T612 100Q612 148 580 180T500
210Q450 208 420 176T388 94Z" />
<glyph unicode="@" d="M1160 795Q1182 941 1159 1095T1042 1348Q995 1397 928 1426T772 1458Q672 1460 587 1428T429 1338Q356 1280 298 1203T197 1039Q153 952 125 861T82 685Q69 603 68 521T81 362Q95 285 126 218T209 102Q260 52 333 23T505 -7Q573 -8 640
9T764 65L742 184Q688 155 629 138T507 120Q427 121 371 145T277 212Q239 254 219 309T192 427Q185 489 189 555T204 684Q216 754 239 830T297 980Q331 1052 377 1117T483 1232Q541 1280 612 1307T768 1332Q841 1330 892 1305T978 1240Q1046 1159 1057 1034T1054
795Q1050 770 1045 733T1029 654Q1019 613 1004 572T968 499Q946 467 918 448T851 430Q825 431 814 445T799 479Q796 499 798 521T804 561L922 1066Q890 1110 847 1133T748 1157Q685 1159 634 1138T541 1079Q499 1041 467 991T412 886Q389 831 374 774T351 666Q347
639 344 603T342 529Q343 490 350 453T373 386Q389 356 416 338T484 319Q517 319 545 329T599 356Q624 372 646 394T688 440Q699 383 734 352T830 318Q886 317 930 340T1010 402Q1044 440 1069 490T1113 594Q1131 647 1142 699T1160 795ZM476 666Q482 702 492 744T517
828Q532 870 553 908T604 976Q633 1005 670 1022T754 1036Q768 1035 780 1032T805 1023L691 573Q677 551 660 530T622 491Q601 473 577 463T523 455Q503 456 491 469T473 502Q467 521 466 544T467 592Q468 615 471 634T476 666Z" />
<glyph unicode="A" d="M807 377L853 0H1026L831 1456H679L-30 0H158L338 377H807ZM413 538L712 1168L788 538H413Z" />
<glyph unicode="B" d="M62 0H527Q623 0 715 28T880 111Q952 166 999 246T1053 429Q1057 483 1047 534T1011 629Q986 672 948 706T858 761Q910 783 957 812T1042 880Q1078 918 1101 966T1130 1076Q1138 1169 1107 1238T1019 1356Q961 1403 885 1427T724 1455L315
1456L62 0ZM362 681L659 680Q713 677 755 658T826 605Q854 571 866 526T872 426Q864 363 834 313T757 229Q711 194 655 175T537 155L271 157L362 681ZM389 835L469 1298L725 1297Q774 1295 817 1281T892 1239Q923 1212 938 1172T947 1077Q940 1018 910 973T836
897Q792 866 738 850T629 833L389 835Z" />
<glyph unicode="C" d="M1046 440L872 437Q854 373 825 316T752 217Q709 175 653 151T524 130Q461 132 417 156T345 221Q317 260 303 310T283 415Q278 469 281 523T291 625L325 831Q334 885 349 943T389 1058Q412 1113 443 1163T518 1250Q560 1286 613 1307T733
1326Q801 1324 846 1297T921 1225Q949 1181 962 1125T978 1009H1157Q1153 1105 1127 1189T1049 1336Q998 1399 922 1436T743 1476Q652 1478 576 1453T438 1382Q375 1336 326 1274T241 1139Q204 1066 180 987T142 829L110 626Q100 553 102 478T121 331Q137 260 168
197T248 87Q296 39 362 11T515 -20Q620 -23 708 11T866 108Q934 170 980 255T1046 440Z" />
<glyph unicode="D" d="M46 0H385Q489 0 581 25T752 96Q822 137 883 197T991 329Q1038 403 1070 490T1117 674L1132 781Q1143 866 1137 945T1110 1096Q1087 1171 1045 1235T944 1345Q881 1395 799 1424T614 1455L298 1456L46 0ZM456 1304L611 1303Q686 1300 743
1278T841 1218Q878 1183 903 1138T941 1041Q957 982 959 917T952 784L936 674Q924 603 901 537T845 413Q811 356 766 308T664 226Q607 190 538 171T389 150L256 151L456 1304Z" />
<glyph unicode="E" d="M959 673L987 830H397L478 1298H1157L1185 1456H325L72 0H940L968 157H280L370 673H959Z" />
<glyph unicode="F" d="M963 643L990 800H402L489 1298H1174L1202 1456H333L81 0H263L375 643H963Z" />
<glyph unicode="G" d="M1020 191L1102 725H643L616 569H903L846 242Q785 179 706 157T541 139Q478 142 434 167T359 233Q328 272 311 322T286 428Q278 482 279 537T287 642L315 814Q324 869 340 928T381 1044Q405 1100 438 1151T515 1240Q558 1277 612 1298T733
1318Q797 1316 842 1293T917 1229Q946 1189 961 1137T980 1028H1157Q1155 1122 1127 1203T1047 1344Q994 1404 918 1439T743 1476Q651 1478 574 1452T434 1378Q370 1330 320 1266T233 1127Q195 1052 170 972T132 812L106 643Q96 569 99 492T122 342Q140 269 174
205T259 92Q309 43 377 14T531 -19Q674 -24 799 31T1020 191Z" />
<glyph unicode="H" d="M951 0L1204 1456H1033L924 830H346L455 1456H285L32 0H202L319 673H897L780 0H951Z" />
<glyph unicode="I" d="M317 1456L288 1295H620L423 160H92L64 0H919L947 160H608L805 1295H1143L1172 1456H317Z" />
<glyph unicode="J" d="M979 1456L806 443Q795 381 767 325T695 227Q652 184 597 160T475 137Q413 138 369 162T297 225Q269 264 256 314T245 421L63 422Q64 330 90 250T168 111Q218 51 292 17T463 -20Q565 -22 655 13T815 111Q884 174 930 259T991 443L1164 1456H979Z" />
<glyph unicode="K" d="M528 674L836 0H1043L662 810L1276 1456H1042L535 921L377 756L500 1456H315L62 0H247L331 483L528 674Z" />
<glyph unicode="L" d="M296 157L521 1456H340L88 0H959L987 157H296Z" />
<glyph unicode="M" d="M511 1456H292L39 0H215L314 572L405 1177L512 405H617L1006 1172L890 590L788 0H964L1216 1456H988L614 730L511 1456Z" />
<glyph unicode="N" d="M950 0L1203 1456H1020L827 362L465 1456H287L34 0H217L410 1096L772 0H950Z" />
<glyph unicode="O" d="M1097 645L1123 810Q1133 881 1132 957T1116 1108Q1101 1181 1072 1247T995 1363Q948 1413 883 1443T730 1476Q640 1478 565 1451T428 1376Q366 1327 318 1261T234 1121Q198 1046 175 967T138 810L112 644Q102 573 103 497T120 348Q135 275
165 209T242 93Q289 43 354 13T506 -20Q596 -22 671 5T809 80Q870 128 918 194T1002 335Q1037 409 1060 488T1097 645ZM944 814L917 644Q908 591 893 533T856 419Q833 362 802 311T730 222Q689 183 636 162T518 142Q456 144 414 169T343 236Q315 276 301 328T282
435Q277 490 280 544T289 643L317 812Q326 864 341 922T379 1037Q402 1093 433 1143T507 1233Q548 1271 600 1292T718 1312Q780 1310 822 1285T893 1220Q920 1180 934 1129T953 1023Q957 968 954 914T944 814Z" />
<glyph unicode="P" d="M363 584L652 583Q752 583 844 613T1010 700Q1082 757 1128 839T1183 1027Q1191 1122 1164 1199T1082 1333Q1027 1389 950 1420T780 1455L333 1456L81 0H261L363 584ZM389 736L488 1304L776 1303Q835 1300 880 1278T956 1218Q985 1181 997
1132T1003 1025Q995 958 965 904T888 813Q841 775 782 755T657 734L389 736Z" />
<glyph unicode="Q" d="M1113 664L1133 791Q1143 864 1142 942T1127 1097Q1112 1172 1082 1240T1004 1360Q956 1411 889 1442T732 1476Q639 1478 562 1450T421 1373Q357 1323 308 1255T222 1111Q185 1034 161 952T123 791L103 663Q93 591 94 513T110 360Q125 285
155 217T233 98Q280 46 347 15T503 -18Q536 -19 568 -15T633 -3L868 -246L1003 -133L796 81Q866 133 919 199T1011 340Q1049 415 1074 497T1113 664ZM953 794L932 663Q923 607 908 547T869 428Q846 369 814 316T739 224Q696 184 641 162T517 142Q452 144 408 170T335
239Q306 281 292 334T274 445Q269 502 272 558T283 662L304 793Q313 848 328 908T368 1027Q391 1085 423 1137T500 1230Q543 1269 597 1291T720 1312Q785 1310 830 1284T903 1217Q931 1175 945 1122T963 1011Q967 954 964 898T953 794Z" />
<glyph unicode="R" d="M640 594L813 0H1004L1006 13L811 631Q877 658 934 695T1037 781Q1081 830 1109 891T1143 1027Q1151 1126 1123 1204T1038 1338Q982 1392 902 1422T727 1455L324 1456L71 0H251L354 594H640ZM380 746L477 1304L723 1303Q783 1300 830 1280T910
1225Q941 1189 954 1140T961 1029Q953 962 921 909T842 820Q794 783 734 764T610 744L380 746Z" />
<glyph unicode="S" d="M871 376Q864 316 834 271T759 195Q714 165 659 151T548 137Q484 138 434 159T348 218Q312 255 292 306T268 421H85Q83 323 118 242T216 104Q278 46 361 14T541 -20Q631 -22 721 3T884 79Q957 129 1005 204T1060 378Q1066 468 1035 537T948
660Q893 713 822 751T676 817Q631 833 584 854T498 905Q459 934 437 975T420 1074Q426 1132 454 1177T526 1255Q569 1286 622 1302T729 1318Q792 1316 837 1294T914 1233Q944 1195 959 1145T978 1036H1162Q1165 1130 1134 1209T1047 1348Q990 1406 911 1440T738
1476Q649 1478 561 1451T402 1371Q330 1318 284 1242T232 1071Q227 984 259 918T346 801Q400 750 470 713T611 649Q658 631 707 609T796 556Q834 524 856 481T871 376Z" />
<glyph unicode="T" d="M1243 1298L1271 1456H222L194 1298H631L406 0H582L807 1298H1243Z" />
<glyph unicode="U" d="M1205 1456H1030L858 470Q846 406 818 345T747 237Q703 190 645 163T515 137Q448 139 403 169T330 247Q303 294 294 352T292 469L457 1456H285L115 469Q104 375 126 288T199 133Q249 65 326 24T503 -20Q609 -22 700 17T861 124Q931 191 977
281T1038 471L1205 1456Z" />
<glyph unicode="V" d="M424 0H581L1254 1456H1056L572 367L542 300L532 376L393 1456H205L424 0Z" />
<glyph unicode="W" d="M149 0H336L654 981L690 1093L691 972L699 0H883L1283 1456H1109L855 475L835 396L834 473L820 1456H662L350 503L317 401L323 503L375 1456H205L149 0Z" />
<glyph unicode="X" d="M646 886L435 1456H234L528 743L-15 0H209L613 581L833 0H1034L732 725L1262 1456H1039L646 886Z" />
<glyph unicode="Y" d="M602 726L408 1456H212L491 554L397 0H565L660 532L1265 1456H1050L602 726Z" />
<glyph unicode="Z" d="M252 157L1132 1306L1153 1456H257L231 1298H917L40 153L19 0H954L979 157H252Z" />
<glyph unicode="[" d="M940 1512L965 1664H579L270 -312H656L680 -160H465L726 1512H940Z" />
<glyph unicode="\" d="M376 1456L692 -125H847L531 1456H376Z" />
<glyph unicode="]" d="M559 1664L535 1512H750L489 -160H274L250 -312H636L945 1664H559Z" />
<glyph unicode="^" d="M232 677H409L682 1162L710 1232L711 1163L819 677H977L803 1456H678L232 677Z" />
<glyph unicode="_" d="M910 -151L937 0H46L20 -151H910Z" />
<glyph unicode="`" d="M880 1215L751 1481H547L746 1215H880Z" />
<glyph unicode="a" d="M764 0H947L949 17Q936 71 936 126T946 236L1030 739Q1039 826 1013 893T937 1007Q886 1053 815 1077T662 1103Q588 1104 511 1085T370 1025Q305 985 261 925T208 782L389 783Q399 828 424 860T484 914Q518 935 559 945T644 954Q693 953
733 939T802 898Q830 871 843 832T851 742L838 656L632 657Q572 657 511 650T392 625Q334 607 283 579T193 511Q154 470 130 416T101 292Q97 220 121 163T191 66Q235 26 295 4T424 -19Q488 -20 546 -4T657 43Q684 59 709 78T759 118Q756 88 756 59T764 0ZM459 140Q418
141 384 153T326 188Q302 210 291 243T285 319Q289 356 303 384T339 435Q357 453 379 466T426 490Q481 512 543 519T661 526L816 525L777 305Q750 268 716 238T642 185Q601 163 555 151T459 140Z" />
<glyph unicode="b" d="M1047 535L1049 556Q1056 617 1054 680T1040 805Q1027 865 1003 918T939 1012Q899 1052 844 1076T715 1102Q656 1103 603 1090T504 1048Q477 1032 453 1011T405 965L513 1536H332L65 0H233L269 124Q287 97 308 76T353 38Q395 9 446 -5T554
-21Q631 -23 695 -1T811 61Q863 101 903 155T972 271Q1001 333 1019 400T1047 535ZM869 557L866 536Q858 479 841 422T797 313Q776 274 749 241T688 185Q653 161 611 148T519 136Q475 137 439 150T375 188Q350 209 331 238T299 303L381 779Q406 815 435 846T500
900Q534 922 574 934T661 945Q707 944 742 930T800 891Q823 865 839 835T862 768Q874 717 874 662T869 557Z" />
<glyph unicode="c" d="M533 129Q480 130 442 148T376 195Q349 223 333 261T310 343Q302 385 302 430T307 518L312 560Q319 609 333 657T370 749Q391 792 420 829T486 893Q525 922 572 937T677 951Q729 949 770 930T840 879Q868 846 882 803T894 710L1064 709Q1068
794 1041 865T964 989Q913 1040 842 1070T687 1102Q571 1105 475 1063T308 947Q237 870 192 770T132 560L127 517Q122 461 124 407T138 302Q154 235 186 177T264 75Q312 32 377 7T525 -21Q604 -23 684 2T830 76Q896 123 941 190T995 341L824 340Q813 291 785 252T718
185Q678 157 630 143T533 129Z" />
<glyph unicode="d" d="M126 543L124 522Q118 463 121 401T138 280Q152 220 177 167T243 72Q282 31 336 7T461 -20Q517 -21 567 -9T663 28Q692 44 719 65T772 114L753 0H917L1184 1536H1003L899 974Q879 1000 856 1020T808 1055Q768 1078 723 1089T627 1102Q550
1104 485 1082T368 1020Q315 980 274 926T202 809Q172 746 153 678T126 543ZM304 522L307 543Q316 615 341 687T410 819Q453 877 515 913T661 946Q699 945 731 935T791 905Q818 886 838 859T874 796L787 291Q765 261 740 235T687 188Q651 163 608 149T515 137Q464
138 427 156T365 204Q340 233 326 271T306 352Q299 394 299 438T304 522Z" />
<glyph unicode="e" d="M540 -20Q666 -22 784 30T977 187L873 275Q809 209 730 169T556 132Q483 134 430 165T345 246Q313 296 301 359T296 488H1041L1054 571Q1067 671 1052 765T992 934Q947 1008 870 1053T681 1102Q604 1104 535 1083T406 1024Q346 985 298 932T213
816Q176 753 153 684T122 543L117 500Q108 396 131 303T209 139Q263 68 346 25T540 -20ZM672 950Q731 948 775 923T847 856Q875 815 885 763T886 656L882 638L318 640Q339 698 371 755T447 856Q490 900 546 926T672 950Z" />
<glyph unicode="f" d="M332 0H514L677 939H1081L1106 1082H701L712 1159Q722 1222 746 1271T810 1356Q849 1390 901 1408T1018 1425Q1070 1424 1120 1414T1220 1387L1257 1539Q1194 1555 1132 1567T1004 1580Q904 1581 823 1552T681 1467Q620 1411 582 1333T530
1158L519 1082H231L205 939H495L332 0Z" />
<glyph unicode="g" d="M127 543L125 522Q118 463 121 401T138 279Q151 219 176 166T242 72Q281 31 335 7T461 -20Q517 -21 567 -9T662 28Q690 43 715 63T765 107L745 12Q732 -53 704 -107T633 -199Q590 -237 534 -257T408 -276Q324 -274 260 -234T148 -127L45
-238Q107 -328 206 -376T414 -427Q519 -430 606 -398T761 -305Q827 -246 869 -162T926 23L1106 1082H940L905 963Q887 990 865 1011T817 1049Q777 1076 729 1089T627 1103Q549 1105 485 1083T367 1021Q314 981 274 927T203 810Q173 747 155 679T127 543ZM305 522L308
543Q318 615 343 687T411 819Q453 877 515 913T661 946Q705 945 741 932T805 895Q827 876 844 850T874 793L789 294Q763 257 733 227T667 175Q635 156 597 146T516 136Q464 138 428 156T366 204Q341 233 327 271T306 352Q300 394 300 438T305 522Z" />
<glyph unicode="h" d="M396 920L512 1536H331L64 0H245L382 787Q410 821 443 850T515 901Q552 922 593 933T681 944Q740 942 778 922T839 866Q861 830 867 784T867 684L752 0H933L1047 681Q1056 763 1044 838T996 972Q960 1030 898 1065T744 1102Q690 1103 642
1090T550 1052Q506 1028 468 994T396 920Z" />
<glyph unicode="i" d="M280 1082L252 921H609L477 160H121L92 0H972L1001 160H658L818 1082H280ZM663 1363Q663 1315 693 1287T771 1260Q819 1262 849 1291T879 1369Q879 1418 849 1448T772 1476Q724 1474 694 1443T663 1363Z" />
<glyph unicode="j" d="M373 1082L345 921H696L538 -8Q529 -70 506 -121T445 -208Q408 -245 357 -265T240 -284Q195 -283 151 -280T61 -268L35 -422Q88 -430 139 -434T245 -439Q346 -439 427 -409T569 -321Q629 -265 667 -185T719 -7L904 1082H373ZM748 1364Q747
1316 777 1287T855 1260Q903 1262 933 1292T964 1370Q964 1418 934 1448T855 1476Q807 1474 778 1443T748 1364Z" />
<glyph unicode="k" d="M474 503L771 0H986L610 622L1124 1082H888L486 729L353 606L515 1536H333L66 0H248L311 366L474 503Z" />
<glyph unicode="l" d="M359 1536L330 1375H688L477 160H121L92 0H972L1001 160H658L897 1536H359Z" />
<glyph unicode="m" d="M334 1083L173 1082L-14 0H158L307 862Q319 881 333 896T364 922Q382 934 404 940T453 945Q483 944 502 933T532 904Q542 886 544 863T544 812L407 0H579L721 834Q727 857 739 876T767 909Q787 927 813 936T869 946Q900 946 920 936T952
907Q962 888 965 864T965 811L829 0H1001L1136 808Q1141 863 1134 915T1103 1010Q1079 1051 1037 1076T932 1102Q862 1102 809 1071T714 987Q705 1017 688 1039T647 1075Q623 1089 595 1095T536 1102Q464 1103 410 1070T314 980L334 1083Z" />
<glyph unicode="n" d="M64 0H245L380 777Q407 813 439 844T509 899Q546 921 588 933T678 945Q738 944 777 924T838 868Q859 833 864 786T864 684L749 0H930L1043 676Q1055 758 1042 838T993 976Q956 1032 894 1066T741 1102Q687 1103 638 1091T545 1054Q501 1030
462 996T390 922L413 1083L252 1082L64 0Z" />
<glyph unicode="o" d="M110 544L107 522Q99 448 106 377T138 243Q154 200 178 161T234 88Q283 40 351 11T506 -20Q624 -23 720 22T888 144Q959 220 1003 321T1062 531L1064 554Q1072 626 1065 697T1036 831Q1018 883 989 928T922 1007Q877 1049 812 1074T665 1102Q549
1105 456 1062T292 947Q216 869 170 764T110 544ZM288 522L291 544Q301 616 328 689T400 822Q445 881 509 917T657 951Q735 948 783 910T856 813Q881 754 885 685T883 553L881 531Q876 474 846 394T771 256Q725 198 661 162T514 129Q444 132 396 164T324 245Q294
306 287 380T288 522Z" />
<glyph unicode="p" d="M1043 536L1045 557Q1052 618 1050 681T1036 805Q1023 865 999 918T935 1012Q895 1052 840 1076T711 1102Q653 1103 601 1090T503 1051Q474 1035 447 1013T396 964L415 1083L251 1082L-9 -416H172L269 105Q289 81 312 62T360 28Q402 4 450
-8T550 -21Q618 -22 676 -5T784 45Q848 86 897 151T977 290Q1003 348 1019 411T1043 536ZM864 557L862 536Q856 491 844 445T812 354Q790 305 759 260T684 185Q648 158 603 144T505 130Q467 132 434 141T375 169Q349 187 328 213T292 275L383 798Q405 827 429 852T482
895Q517 920 558 933T648 945Q699 944 735 927T798 882Q817 859 830 832T854 770Q867 720 868 664T864 557Z" />
<glyph unicode="q" d="M127 543L125 522Q118 462 121 399T138 277Q151 217 177 164T243 71Q283 30 338 6T465 -20Q514 -21 559 -12T645 17Q676 32 705 52T762 98L664 -416H845L1105 1082H937L905 974Q884 1002 859 1023T806 1059Q768 1080 724 1090T632 1102Q553
1104 488 1083T369 1022Q316 983 275 929T204 812Q174 749 155 681T127 543ZM305 522L308 543Q313 586 324 630T353 716Q374 765 405 811T478 890Q516 920 563 936T667 951Q704 950 736 940T795 911Q821 893 841 868T878 810L784 274Q758 242 729 216T667 170Q634
151 597 141T518 131Q466 132 429 150T367 199Q342 229 328 268T307 350Q300 393 300 437T305 522Z" />
<glyph unicode="r" d="M931 1104Q871 1104 818 1091T716 1052Q668 1026 625 990T544 910L550 942L574 1082H402L215 0H396L516 695Q549 755 591 801T686 875Q727 898 776 909T882 921Q931 920 979 913T1075 895L1121 1075Q1075 1092 1027 1097T931 1104Z" />
<glyph unicode="s" d="M818 294Q811 247 783 215T714 165Q674 146 629 138T544 131Q495 131 452 143T377 181Q345 205 326 243T306 333L126 334Q124 247 158 182T251 72Q309 27 383 4T538 -20Q614 -22 694 -4T840 55Q906 94 950 157T998 307Q1000 358 985 399T943
472Q916 503 879 526T799 568Q757 586 713 599T628 622Q595 629 556 639T483 666Q450 683 430 711T415 785Q421 830 447 861T510 913Q547 932 589 941T672 949Q714 948 752 936T821 901Q850 877 867 843T884 764L1063 763Q1064 846 1033 908T949 1014Q896 1056
826 1078T679 1102Q614 1103 548 1088T419 1042Q347 1007 293 938T236 778Q233 703 266 651T354 563Q401 532 457 512T567 477Q600 469 636 460T710 436Q733 427 753 415T790 387Q806 370 814 347T818 294Z" />
<glyph unicode="t" d="M724 1344H542L496 1082H221L196 939H472L374 351Q367 277 379 211T426 94Q460 43 516 13T653 -19Q724 -21 801 -10T941 36L924 169Q870 157 816 147T706 139Q658 140 627 157T578 202Q561 230 556 268T555 350L653 939H1053L1078 1082H678L724
1344Z" />
<glyph unicode="u" d="M445 -20Q550 -22 633 24T780 149L757 0H920L1108 1082H926L791 305Q765 265 734 234T667 181Q627 158 582 147T484 137Q421 139 387 167T339 238Q324 281 325 333T332 436L439 1082H258L150 439Q141 356 149 275T192 128Q225 63 286 23T445 -20Z" />
<glyph unicode="v" d="M436 0H574L1172 1082H980L558 267L529 198L524 266L348 1083L174 1082L436 0Z" />
<glyph unicode="w" d="M168 0H311L584 653L642 827L639 673L689 0H831L1242 1082H1078L839 384L786 226L788 380L741 1082H624L340 402L285 243L291 381L288 1082H132L168 0Z" />
<glyph unicode="x" d="M609 682L395 1082H198L501 555L6 0H229L583 411L809 0H1005L693 539L1176 1082H952L609 682Z" />
<glyph unicode="y" d="M516 375L347 1082H154L425 62L322 -94Q303 -123 281 -155T232 -215Q205 -242 172 -260T100 -279Q79 -279 57 -276T13 -271L-28 -424Q1 -429 30 -434T89 -440Q154 -440 209 -418T312 -356Q358 -318 396 -269T464 -168L1212 1082H1001L537
255L516 375Z" />
<glyph unicode="z" d="M321 151L1072 943L1094 1082H239L215 929H827L84 144L61 0H959L984 151H321Z" />
<glyph unicode="{" d="M812 -365L837 -250Q774 -242 741 -206T694 -118Q680 -68 681 -10T688 98L709 268Q714 321 708 371T681 466Q661 510 627 546T545 609Q665 660 736 745T824 962L846 1132Q854 1193 869 1254T914 1365Q943 1414 990 1446T1110 1483L1100 1600Q1001
1594 925 1555T795 1452Q741 1389 709 1307T664 1132L642 962Q622 823 542 756T323 686L308 542Q374 539 419 520T491 467Q517 432 526 383T528 269L506 99Q498 20 511 -60T562 -206Q599 -272 661 -315T812 -365Z" />
<glyph unicode="|" d="M513 -398L803 1456H657L367 -398H513Z" />
<glyph unicode="}" d="M178 -252L188 -369Q285 -363 360 -323T491 -219Q545 -156 578 -74T624 99L646 268Q665 407 746 474T965 545L980 689Q849 695 798 763T760 961L781 1132Q790 1212 779 1292T731 1438Q695 1503 634 1546T482 1595L453 1481Q520 1474 554
1439T600 1358Q614 1307 611 1248T601 1133L579 962Q574 909 580 859T607 764Q627 719 660 682T742 619Q622 569 552 484T465 268L443 99Q434 42 417 -18T369 -129Q338 -180 292 -214T178 -252Z" />
<glyph unicode="~" d="M1158 742L1037 757Q1029 721 1014 687T974 625Q950 597 918 580T845 563Q816 563 790 571T739 594Q715 608 694 626T651 663Q626 686 599 707T544 745Q501 771 454 786T353 803Q282 804 226 777T128 704Q86 658 61 598T28 473L159 456Q166
492 181 525T220 584Q243 609 275 625T347 641Q375 641 401 633T452 610Q476 595 498 578T540 542Q572 513 605 488T676 443Q712 424 752 413T837 401Q908 400 965 429T1063 506Q1104 554 1128 615T1158 742Z" />
<glyph unicode="&#xa1;" d="M508 611L337 -372H518L689 611H508ZM775 993Q775 1041 744 1073T663 1104Q613 1102 583 1070T551 987Q551 938 583 908T662 880Q710 882 741 913T775 993Z" />
<glyph unicode="&#xa2;" d="M537 129Q484 130 446 148T380 195Q353 223 337 261T314 343Q306 385 306 430T311 518L316 560Q322 607 336 654T371 744Q394 791 425 829T495 897Q533 924 579 938T681 951Q733 949 774 930T844 879Q872 846 886 803T898 710L1068
709Q1071 782 1052 845T994 958Q956 1007 902 1041T782 1090L822 1318H641L602 1097Q503 1083 423 1034T283 913Q223 840 186 750T136 560L131 517Q126 464 128 413T140 313Q154 248 183 191T253 90Q285 58 324 35T412 -3L370 -245H551L590 -18Q662 -10 732 18T859
94Q915 140 952 203T999 341L828 340Q817 291 789 252T722 185Q682 157 634 143T537 129Z" />
<glyph unicode="&#xa3;" d="M454 626H760L787 778H476L510 1040Q518 1095 540 1147T599 1241Q635 1281 684 1304T795 1326Q848 1324 886 1306T949 1257Q973 1225 982 1182T989 1089L1171 1088Q1175 1173 1154 1243T1088 1364Q1043 1415 977 1444T823 1476Q724
1478 639 1446T489 1356Q424 1297 383 1216T329 1038L296 778H140L114 626H274L244 400Q239 365 230 327T204 253Q187 218 162 191T101 149L36 150L9 0H1010L1037 151L317 149Q363 204 388 267T424 401L454 626Z" />
<glyph unicode="&#xa4;" d="M825 82L907 -27L1050 100L958 224Q1007 291 1038 365T1081 522Q1091 597 1083 670T1052 814L1194 935L1082 1081L941 955Q885 1000 819 1024T680 1049Q601 1050 530 1026T392 959L302 1080L160 952L256 823Q200 754 166 675T119 508Q110
436 116 366T144 226L16 118L127 -26L247 83Q306 33 375 7T521 -20Q606 -22 681 6T825 82ZM287 506Q292 549 306 591T342 672Q367 720 405 762T490 831Q528 855 573 867T666 879Q709 878 745 864T809 827Q846 796 870 753T905 659Q912 626 914 592T912 524Q907
485 895 446T864 370Q838 321 803 280T724 207Q683 180 636 165T535 150Q491 151 455 165T389 204Q354 234 331 275T295 362Q287 396 285 433T287 506Z" />
<glyph unicode="&#xa5;" d="M1096 1456L672 853L621 780V780L594 855L381 1456H186L470 736H157L136 615H505L475 446H107L86 326H455L398 0H579L636 326H1012L1034 446H655L689 611L695 618L1062 615L1084 736H781L1314 1456H1096Z" />
<glyph unicode="&#xa6;" d="M344 -270H525L663 521H482L344 -270ZM693 698L825 1456H644L512 698H693Z" />
<glyph unicode="&#xa7;" d="M1077 439Q1082 500 1070 549T1034 638Q1003 687 955 724T850 789Q811 808 769 824T685 854Q653 864 618 875T550 900Q516 914 487 932T438 975Q417 999 407 1031T403 1105Q412 1165 444 1207T524 1277Q571 1303 626 1314T736 1325Q799
1323 847 1302T927 1244Q959 1207 973 1157T984 1045H1164Q1170 1147 1143 1226T1060 1361Q1005 1415 925 1444T744 1476Q685 1477 625 1469T508 1441Q451 1421 402 1391T314 1318Q275 1276 251 1222T221 1102Q217 1054 222 1009T246 923Q256 898 271 875T307 830Q261
808 222 780T154 717Q124 682 105 639T82 543Q74 448 105 381T192 266Q216 245 243 228T301 195Q340 174 384 158T472 126Q502 116 536 105T604 80Q637 65 667 47T719 4Q740 -21 750 -52T756 -123Q748 -182 715 -224T635 -293Q587 -320 532 -332T423 -343Q358 -342
305 -323T216 -268Q180 -232 162 -180T149 -62L-36 -64Q-41 -170 -9 -250T84 -384Q145 -438 230 -466T415 -496Q505 -498 595 -477T760 -410Q833 -365 882 -293T939 -120Q943 -62 934 -10T897 89Q887 105 875 120T848 151Q894 173 934 200T1005 263Q1035 298 1053
341T1077 439ZM607 691Q637 681 671 670T740 643Q774 628 805 609T858 565Q880 540 890 508T895 436Q889 396 872 364T828 308Q801 283 768 266T698 237Q689 240 681 243T663 250Q635 260 607 270T549 289Q500 305 446 323T348 369Q304 397 280 439T264 545Q271
590 290 625T339 685Q363 705 392 719T456 743Q493 729 531 716T607 691Z" />
<glyph unicode="&#xa8;" d="M399 1369Q398 1322 428 1293T505 1265Q551 1267 581 1297T612 1373Q613 1420 582 1449T505 1478Q458 1476 429 1446T399 1369ZM815 1367Q815 1320 845 1291T921 1263Q968 1265 998 1295T1029 1371Q1029 1419 999 1448T922 1477Q875
1475 846 1444T815 1367Z" />
<glyph unicode="&#xa9;" d="M813 443L706 442Q699 411 688 386T658 342Q640 324 615 314T555 305Q516 306 492 324T455 370Q442 398 439 431T437 497L445 587Q449 623 461 657T494 719Q514 746 544 763T615 780Q651 780 674 770T712 740Q725 722 729 697T732 641L841
640Q843 692 832 734T795 806Q767 839 723 857T621 877Q558 878 508 855T421 791Q385 750 364 697T336 585L328 498Q325 443 336 391T375 299Q402 259 445 234T550 208Q615 206 665 226T748 284Q774 314 790 354T813 443ZM165 534Q176 630 220 719T334 875Q400
941 486 977T669 1011Q762 1009 832 969T949 865Q995 800 1015 718T1025 550Q1014 455 972 367T862 212Q795 144 708 105T520 68Q427 70 356 111T240 217Q194 282 175 365T165 534ZM78 535Q67 430 92 331T175 155Q232 77 318 29T517 -21Q596 -23 668 -2T805 57Q868
95 921 148T1014 266Q1054 330 1079 402T1112 550Q1119 619 1110 686T1077 815Q1053 876 1015 928T925 1018Q874 1056 811 1078T673 1102Q594 1104 522 1084T387 1025Q323 987 270 934T176 818Q136 754 111 682T78 535Z" />
<glyph unicode="&#xaa;" d="M781 704L939 705Q932 751 933 795T943 886Q959 991 968 1043T992 1200Q1000 1261 985 1311T938 1398Q906 1434 858 1454T748 1476Q691 1477 636 1464T537 1422Q492 1393 462 1349T422 1243L578 1232Q586 1260 600 1280T635 1313Q655
1326 680 1331T734 1336Q764 1335 784 1325T816 1296Q827 1278 830 1254T831 1202L823 1149L685 1150Q626 1150 565 1139T452 1101Q401 1073 367 1027T330 911Q327 860 342 820T386 751Q415 722 456 707T547 691Q617 691 675 720T778 801Q777 777 777 753T781 704ZM597
826Q576 826 556 831T521 847Q506 857 498 874T493 915Q497 949 516 972T562 1009Q589 1023 620 1029T680 1037H809L790 927Q777 909 761 894T727 867Q698 848 665 837T597 826Z" />
<glyph unicode="&#xab;" d="M362 505L690 914H539L191 525L189 505L415 118H539L362 505ZM687 505L1015 914H864L516 525L514 505L740 118H864L687 505Z" />
<glyph unicode="&#xac;" d="M950 375L1024 800H218L189 639H816L769 375H950Z" />
<glyph unicode="&#xad;" d="M947 561L974 713H231L204 561H947Z" />
<glyph unicode="&#xae;" d="M75 533Q67 458 78 386T118 250Q140 198 173 154T248 75Q300 32 367 7T514 -21Q593 -23 665 -3T802 56Q865 94 918 147T1011 265Q1051 328 1076 400T1109 547Q1119 652 1094 750T1012 926Q955 1003 869 1050T670 1101Q591 1103 519
1083T383 1024Q319 986 266 933T173 816Q133 752 108 680T75 533ZM162 532Q172 627 215 714T325 869Q392 935 479 974T666 1010Q759 1008 830 968T947 863Q993 798 1012 716T1022 548Q1012 454 969 366T859 211Q793 145 705 106T518 69Q425 71 355 111T238 217Q192
281 172 363T162 532ZM477 485H598L675 232H778L683 518Q711 529 738 543T787 577Q808 596 821 622T838 681Q841 730 825 764T780 821Q750 843 711 854T629 866L430 867L330 232H436L477 485ZM491 582L521 770L627 769Q651 768 672 764T709 750Q724 740 731 722T734
676Q730 652 717 635T686 606Q668 595 646 589T602 582H491Z" />
<glyph unicode="&#xaf;" d="M1054 1313L1077 1456H383L360 1313H1054Z" />
<glyph unicode="&#xb0;" d="M457 1207Q454 1158 469 1114T515 1035Q544 1001 586 981T678 959Q732 958 780 980T864 1039Q900 1075 922 1123T947 1225Q950 1273 935 1318T892 1398Q863 1433 823 1454T732 1477Q677 1478 628 1456T542 1397Q505 1359 483 1310T457
1207ZM579 1210Q581 1237 593 1262T625 1307Q644 1326 669 1338T722 1350Q748 1350 768 1339T803 1310Q816 1292 822 1269T826 1222Q824 1195 813 1171T783 1129Q764 1110 740 1099T688 1087Q662 1087 641 1097T606 1124Q591 1141 584 1163T579 1210Z" />
<glyph unicode="&#xb1;" d="M728 855L793 1267H629L564 855H191L167 703H541L475 289H640L705 703H1057L1081 855H728ZM907 1L934 152H123L96 1H907Z" />
<glyph unicode="&#xb2;" d="M918 667L941 795H562L757 940Q792 967 830 999T902 1068Q934 1105 956 1147T981 1239Q984 1296 964 1339T909 1411Q874 1439 827 1453T727 1469Q665 1470 611 1452T515 1400Q473 1365 447 1316T413 1205L568 1206Q575 1235 587 1260T618
1302Q638 1321 665 1332T727 1342Q774 1341 801 1314T821 1239Q817 1210 801 1183T763 1132Q741 1108 717 1087T672 1048L356 783L335 667H918Z" />
<glyph unicode="&#xb3;" d="M912 1014Q898 1031 879 1043T835 1065Q865 1078 892 1095T942 1135Q964 1157 978 1185T994 1249Q997 1306 975 1347T916 1415Q878 1441 830 1454T732 1467Q678 1468 628 1455T538 1414Q497 1386 470 1345T437 1246H593Q609 1294 647
1316T735 1339Q758 1339 778 1333T814 1315Q829 1303 836 1285T841 1241Q837 1210 821 1189T782 1153Q759 1139 731 1132T676 1124L596 1125L585 1009L672 1008Q699 1007 723 1002T767 985Q785 973 794 953T800 901Q796 871 781 849T743 813Q720 798 693 791T638
784Q611 785 588 791T548 811Q532 824 524 843T515 889H363Q363 831 384 788T443 715Q479 686 528 671T631 655Q686 654 742 667T844 711Q889 740 918 785T950 894Q951 930 942 960T912 1014Z" />
<glyph unicode="&#xb4;" d="M708 1481L487 1215H637L939 1481H708Z" />
<glyph unicode="&#xb5;" d="M446 1082H266L6 -416H186L275 54Q320 13 375 -3T490 -21Q531 -21 567 -13T637 10Q672 28 703 54T763 116L744 0H906L1094 1082H912L773 282Q751 246 724 219T666 172Q629 149 586 139T492 131Q448 132 419 148T373 190Q355 215 347
247T337 316Q335 352 337 388T344 457L446 1082Z" />
<glyph unicode="&#xb6;" d="M662 0H843L1096 1456L819 1457Q711 1457 616 1424T448 1329Q375 1267 329 1180T272 982Q263 881 287 798T366 654Q419 593 499 559T680 521L752 520L662 0Z" />
<glyph unicode="&#xb7;" d="M511 726Q511 678 541 648T623 618Q667 618 701 650T735 732Q735 780 704 812T624 842Q574 840 543 808T511 726Z" />
<glyph unicode="&#xb8;" d="M503 0H372L327 -133Q348 -136 374 -139T422 -150Q443 -159 456 -175T464 -222Q459 -254 440 -274T395 -306Q369 -318 340 -323T283 -329L279 -437Q313 -436 350 -432T423 -417Q460 -407 494 -390T554 -347Q577 -324 591 -292T606 -218Q607
-181 597 -151T565 -99Q550 -84 529 -73T482 -55L503 0Z" />
<glyph unicode="&#xb9;" d="M747 665L879 1454H857L502 1341L479 1206L698 1262L594 665H747Z" />
<glyph unicode="&#xba;" d="M352 1140L339 1024Q333 954 350 894T406 789Q443 744 499 718T628 690Q704 688 769 712T884 781Q933 826 965 888T1006 1024L1019 1141Q1026 1211 1009 1271T955 1377Q917 1422 861 1448T733 1476Q657 1478 592 1454T476 1384Q426
1339 394 1277T352 1140ZM502 1022L514 1142Q520 1182 535 1218T576 1281Q601 1308 635 1323T714 1337Q756 1336 785 1320T832 1276Q849 1249 855 1214T859 1142L846 1023Q840 983 825 947T784 884Q759 857 725 842T647 827Q605 828 576 844T529 888Q512 915 506
949T502 1022Z" />
<glyph unicode="&#xbb;" d="M426 949H300L478 560L150 152H302L649 542L650 562L426 949ZM760 949H634L812 560L484 152H636L983 542L984 562L760 949Z" />
<glyph unicode="&#xbc;" d="M409 751L527 1461H508L188 1359L167 1238L365 1288L271 751H409ZM990 269L1066 710H919L516 252L505 152H831L804 0H943L970 152H1063L1083 269H990ZM664 269L883 504L902 531L851 269H664ZM332 223L990 1168L883 1239L225 294L332 223Z" />
<glyph unicode="&#xbd;" d="M396 747L514 1457H495L175 1355L154 1234L352 1284L258 747H396ZM1046 0L1067 115H726L901 246Q933 270 967 299T1031 361Q1060 394 1080 432T1103 515Q1105 566 1087 605T1038 669Q1006 695 964 708T874 722Q818 723 770 707T683
659Q645 628 622 584T591 484L731 485Q737 513 749 536T780 575Q798 591 821 599T874 608Q895 608 912 602T940 583Q952 571 957 554T959 515Q955 489 941 465T906 419Q887 397 865 378T825 343L540 104L521 0H1046ZM274 223L932 1168L825 1239L167 294L274 223Z"
/>
<glyph unicode="&#xbe;" d="M1022 269L1098 710H951L548 252L537 152H863L836 0H975L1002 152H1095L1115 269H1022ZM696 269L915 504L934 531L883 269H696ZM316 1157L306 1053L384 1052Q409 1051 431 1047T469 1031Q486 1020 494 1002T500 956Q496 929 482 909T448
876Q428 863 404 857T354 850Q328 851 306 857T269 877Q257 889 250 905T243 945H106Q106 893 125 854T178 788Q211 762 255 749T348 734Q397 733 447 745T539 784Q580 811 606 852T635 949Q636 985 626 1014T594 1064Q581 1076 566 1086T531 1103Q558 1115 583
1130T627 1166Q647 1186 659 1211T674 1269Q677 1320 657 1357T604 1418Q570 1442 527 1453T438 1465Q390 1466 345 1454T263 1417Q227 1392 203 1355T173 1266H313Q328 1309 362 1329T441 1350Q462 1350 480 1345T512 1328Q526 1317 532 1301T537 1262Q533 1234
519 1215T483 1182Q463 1170 438 1164T388 1156L316 1157ZM396 222L1054 1167L947 1238L289 293L396 222Z" />
<glyph unicode="&#xbf;" d="M708 674L531 673Q526 636 518 605T496 546Q482 518 462 493T412 442Q358 396 304 346T206 240Q161 184 131 119T94 -22Q86 -107 108 -175T177 -291Q223 -339 290 -365T441 -393Q526 -395 601 -371T736 -300Q794 -254 832 -186T881
-32L701 -33Q692 -76 673 -111T626 -172Q593 -202 549 -218T452 -233Q403 -232 368 -216T310 -170Q288 -142 280 -103T278 -17Q285 36 309 83T368 174Q402 217 442 255T520 326Q566 367 599 403T654 479Q676 518 689 564T708 674ZM561 985Q561 936 593 906T672
878Q721 880 752 911T785 991Q786 1040 755 1071T674 1102Q624 1100 593 1067T561 985Z" />
<glyph unicode="&#xc0;" d="M807 377L853 0H1026L831 1456H679L-30 0H158L338 377H807ZM413 538L712 1168L788 538H413ZM851 1561L722 1827H518L717 1561H851Z" />
<glyph unicode="&#xc1;" d="M807 377L853 0H1026L831 1456H679L-30 0H158L338 377H807ZM413 538L712 1168L788 538H413ZM908 1824L687 1558H837L1139 1824H908Z" />
<glyph unicode="&#xc2;" d="M807 377L853 0H1026L831 1456H679L-30 0H158L338 377H807ZM413 538L712 1168L788 538H413ZM1084 1625L873 1864H767L495 1626L493 1599L646 1600L818 1749L936 1599L1082 1598L1084 1625Z" />
<glyph unicode="&#xc3;" d="M807 377L853 0H1026L831 1456H679L-30 0H158L338 377H807ZM413 538L712 1168L788 538H413ZM1154 1844L1057 1873Q1051 1853 1042 1834T1012 1792Q997 1776 979 1769T937 1760Q900 1759 869 1774T806 1809Q775 1827 743 1843T674 1859Q626
1859 588 1840T522 1788Q494 1755 477 1713T455 1628L555 1605Q561 1626 571 1646T596 1682Q610 1697 629 1706T673 1717Q710 1718 741 1703T804 1668Q834 1649 866 1634T936 1618Q984 1618 1022 1637T1089 1688Q1116 1719 1132 1759T1154 1844Z" />
<glyph unicode="&#xc4;" d="M807 377L853 0H1026L831 1456H679L-30 0H158L338 377H807ZM413 538L712 1168L788 538H413ZM485 1716Q484 1669 514 1640T591 1612Q637 1614 667 1644T698 1720Q699 1767 668 1796T591 1825Q544 1823 515 1793T485 1716ZM901 1714Q901
1667 931 1638T1007 1610Q1054 1612 1084 1642T1115 1718Q1115 1766 1085 1795T1008 1824Q961 1822 932 1791T901 1714Z" />
<glyph unicode="&#xc5;" d="M807 377L853 0H1026L831 1456H679L-30 0H158L338 377H807ZM413 538L712 1168L788 538H413ZM607 1724Q606 1684 619 1650T658 1591Q683 1566 717 1552T791 1537Q834 1537 872 1552T939 1596Q967 1623 984 1660T1003 1740Q1004 1779
991 1814T954 1875Q930 1901 896 1916T822 1932Q779 1932 741 1916T673 1872Q644 1843 626 1805T607 1724ZM705 1727Q707 1749 717 1769T743 1806Q758 1822 778 1831T822 1841Q843 1841 859 1832T887 1809Q898 1794 903 1776T906 1737Q903 1716 894 1696T869 1661Q853
1645 834 1636T792 1627Q771 1627 755 1635T726 1656Q715 1670 709 1688T705 1727Z" />
<glyph unicode="&#xc6;" d="M1056 0L1083 151H736L827 682H1120L1146 833H854L932 1304H1259L1286 1456H718L-78 0H123L305 353H600L540 0H1056ZM393 527L749 1218L630 527H393Z" />
<glyph unicode="&#xc7;" d="M1046 440L872 437Q854 373 825 316T752 217Q709 175 653 151T524 130Q461 132 417 156T345 221Q317 260 303 310T283 415Q278 469 281 523T291 625L325 831Q334 885 349 943T389 1058Q412 1113 443 1163T518 1250Q560 1286 613 1307T733
1326Q801 1324 846 1297T921 1225Q949 1181 962 1125T978 1009H1157Q1153 1105 1127 1189T1049 1336Q998 1399 922 1436T743 1476Q652 1478 576 1453T438 1382Q375 1336 326 1274T241 1139Q204 1066 180 987T142 829L110 626Q100 553 102 478T121 331Q137 260 168
197T248 87Q296 39 362 11T515 -20Q620 -23 708 11T866 108Q934 170 980 255T1046 440ZM555 0H424L379 -133Q400 -136 426 -139T474 -150Q495 -159 508 -175T516 -222Q511 -254 492 -274T447 -306Q421 -318 392 -323T335 -329L331 -437Q365 -436 402 -432T475 -417Q512
-407 546 -390T606 -347Q629 -324 643 -292T658 -218Q659 -181 649 -151T617 -99Q602 -84 581 -73T534 -55L555 0Z" />
<glyph unicode="&#xc8;" d="M959 673L987 830H397L478 1298H1157L1185 1456H325L72 0H940L968 157H280L370 673H959ZM841 1561L712 1827H508L707 1561H841Z" />
<glyph unicode="&#xc9;" d="M959 673L987 830H397L478 1298H1157L1185 1456H325L72 0H940L968 157H280L370 673H959ZM898 1824L677 1558H827L1129 1824H898Z" />
<glyph unicode="&#xca;" d="M959 673L987 830H397L478 1298H1157L1185 1456H325L72 0H940L968 157H280L370 673H959ZM1074 1625L863 1864H757L485 1626L483 1599L636 1600L808 1749L926 1599L1072 1598L1074 1625Z" />
<glyph unicode="&#xcb;" d="M959 673L987 830H397L478 1298H1157L1185 1456H325L72 0H940L968 157H280L370 673H959ZM475 1716Q474 1669 504 1640T581 1612Q627 1614 657 1644T688 1720Q689 1767 658 1796T581 1825Q534 1823 505 1793T475 1716ZM891 1714Q891
1667 921 1638T997 1610Q1044 1612 1074 1642T1105 1718Q1105 1766 1075 1795T998 1824Q951 1822 922 1791T891 1714Z" />
<glyph unicode="&#xcc;" d="M317 1456L288 1295H620L423 160H92L64 0H919L947 160H608L805 1295H1143L1172 1456H317ZM791 1561L662 1827H458L657 1561H791Z" />
<glyph unicode="&#xcd;" d="M317 1456L288 1295H620L423 160H92L64 0H919L947 160H608L805 1295H1143L1172 1456H317ZM848 1824L627 1558H777L1079 1824H848Z" />
<glyph unicode="&#xce;" d="M317 1456L288 1295H620L423 160H92L64 0H919L947 160H608L805 1295H1143L1172 1456H317ZM1024 1625L813 1864H707L435 1626L433 1599L586 1600L758 1749L876 1599L1022 1598L1024 1625Z" />
<glyph unicode="&#xcf;" d="M317 1456L288 1295H620L423 160H92L64 0H919L947 160H608L805 1295H1143L1172 1456H317ZM425 1716Q424 1669 454 1640T531 1612Q577 1614 607 1644T638 1720Q639 1767 608 1796T531 1825Q484 1823 455 1793T425 1716ZM841 1714Q841
1667 871 1638T947 1610Q994 1612 1024 1642T1055 1718Q1055 1766 1025 1795T948 1824Q901 1822 872 1791T841 1714Z" />
<glyph unicode="&#xd0;" d="M61 0H400Q551 0 676 51T895 194Q989 284 1049 407T1132 674L1147 781Q1158 870 1152 953T1121 1109Q1096 1181 1054 1243T952 1350Q890 1398 809 1425T629 1455L313 1456L202 817H-18L-45 666H176L61 0ZM574 666L601 817H386L471 1304L626
1303Q696 1300 750 1281T845 1227Q885 1192 913 1145T956 1042Q972 983 974 917T967 784L951 674Q933 565 889 470T776 304Q707 233 614 192T404 150L271 151L360 666H574Z" />
<glyph unicode="&#xd1;" d="M950 0L1203 1456H1020L827 362L465 1456H287L34 0H217L410 1096L772 0H950ZM1116 1844L1019 1873Q1013 1853 1004 1834T974 1792Q959 1776 941 1769T899 1760Q862 1759 831 1774T768 1809Q737 1827 705 1843T636 1859Q588 1859 550
1840T484 1788Q456 1755 439 1713T417 1628L517 1605Q523 1626 533 1646T558 1682Q572 1697 591 1706T635 1717Q672 1718 703 1703T766 1668Q796 1649 828 1634T898 1618Q946 1618 984 1637T1051 1688Q1078 1719 1094 1759T1116 1844Z" />
<glyph unicode="&#xd2;" d="M1097 645L1123 810Q1133 881 1132 957T1116 1108Q1101 1181 1072 1247T995 1363Q948 1413 883 1443T730 1476Q640 1478 565 1451T428 1376Q366 1327 318 1261T234 1121Q198 1046 175 967T138 810L112 644Q102 573 103 497T120 348Q135
275 165 209T242 93Q289 43 354 13T506 -20Q596 -22 671 5T809 80Q870 128 918 194T1002 335Q1037 409 1060 488T1097 645ZM944 814L917 644Q908 591 893 533T856 419Q833 362 802 311T730 222Q689 183 636 162T518 142Q456 144 414 169T343 236Q315 276 301 328T282
435Q277 490 280 544T289 643L317 812Q326 864 341 922T379 1037Q402 1093 433 1143T507 1233Q548 1271 600 1292T718 1312Q780 1310 822 1285T893 1220Q920 1180 934 1129T953 1023Q957 968 954 914T944 814ZM858 1582L729 1848H525L724 1582H858Z" />
<glyph unicode="&#xd3;" d="M1097 645L1123 810Q1133 881 1132 957T1116 1108Q1101 1181 1072 1247T995 1363Q948 1413 883 1443T730 1476Q640 1478 565 1451T428 1376Q366 1327 318 1261T234 1121Q198 1046 175 967T138 810L112 644Q102 573 103 497T120 348Q135
275 165 209T242 93Q289 43 354 13T506 -20Q596 -22 671 5T809 80Q870 128 918 194T1002 335Q1037 409 1060 488T1097 645ZM944 814L917 644Q908 591 893 533T856 419Q833 362 802 311T730 222Q689 183 636 162T518 142Q456 144 414 169T343 236Q315 276 301 328T282
435Q277 490 280 544T289 643L317 812Q326 864 341 922T379 1037Q402 1093 433 1143T507 1233Q548 1271 600 1292T718 1312Q780 1310 822 1285T893 1220Q920 1180 934 1129T953 1023Q957 968 954 914T944 814ZM915 1845L694 1579H844L1146 1845H915Z" />
<glyph unicode="&#xd4;" d="M1097 645L1123 810Q1133 881 1132 957T1116 1108Q1101 1181 1072 1247T995 1363Q948 1413 883 1443T730 1476Q640 1478 565 1451T428 1376Q366 1327 318 1261T234 1121Q198 1046 175 967T138 810L112 644Q102 573 103 497T120 348Q135
275 165 209T242 93Q289 43 354 13T506 -20Q596 -22 671 5T809 80Q870 128 918 194T1002 335Q1037 409 1060 488T1097 645ZM944 814L917 644Q908 591 893 533T856 419Q833 362 802 311T730 222Q689 183 636 162T518 142Q456 144 414 169T343 236Q315 276 301 328T282
435Q277 490 280 544T289 643L317 812Q326 864 341 922T379 1037Q402 1093 433 1143T507 1233Q548 1271 600 1292T718 1312Q780 1310 822 1285T893 1220Q920 1180 934 1129T953 1023Q957 968 954 914T944 814ZM1091 1646L880 1885H774L502 1647L500 1620L653 1621L825
1770L943 1620L1089 1619L1091 1646Z" />
<glyph unicode="&#xd5;" d="M1097 645L1123 810Q1133 881 1132 957T1116 1108Q1101 1181 1072 1247T995 1363Q948 1413 883 1443T730 1476Q640 1478 565 1451T428 1376Q366 1327 318 1261T234 1121Q198 1046 175 967T138 810L112 644Q102 573 103 497T120 348Q135
275 165 209T242 93Q289 43 354 13T506 -20Q596 -22 671 5T809 80Q870 128 918 194T1002 335Q1037 409 1060 488T1097 645ZM944 814L917 644Q908 591 893 533T856 419Q833 362 802 311T730 222Q689 183 636 162T518 142Q456 144 414 169T343 236Q315 276 301 328T282
435Q277 490 280 544T289 643L317 812Q326 864 341 922T379 1037Q402 1093 433 1143T507 1233Q548 1271 600 1292T718 1312Q780 1310 822 1285T893 1220Q920 1180 934 1129T953 1023Q957 968 954 914T944 814ZM1161 1865L1064 1894Q1058 1874 1049 1855T1019 1813Q1004
1797 986 1790T944 1781Q907 1780 876 1795T813 1830Q782 1848 750 1864T681 1880Q633 1880 595 1861T529 1809Q501 1776 484 1734T462 1649L562 1626Q568 1647 578 1667T603 1703Q617 1718 636 1727T680 1738Q717 1739 748 1724T811 1689Q841 1670 873 1655T943
1639Q991 1639 1029 1658T1096 1709Q1123 1740 1139 1780T1161 1865Z" />
<glyph unicode="&#xd6;" d="M1097 645L1123 810Q1133 881 1132 957T1116 1108Q1101 1181 1072 1247T995 1363Q948 1413 883 1443T730 1476Q640 1478 565 1451T428 1376Q366 1327 318 1261T234 1121Q198 1046 175 967T138 810L112 644Q102 573 103 497T120 348Q135
275 165 209T242 93Q289 43 354 13T506 -20Q596 -22 671 5T809 80Q870 128 918 194T1002 335Q1037 409 1060 488T1097 645ZM944 814L917 644Q908 591 893 533T856 419Q833 362 802 311T730 222Q689 183 636 162T518 142Q456 144 414 169T343 236Q315 276 301 328T282
435Q277 490 280 544T289 643L317 812Q326 864 341 922T379 1037Q402 1093 433 1143T507 1233Q548 1271 600 1292T718 1312Q780 1310 822 1285T893 1220Q920 1180 934 1129T953 1023Q957 968 954 914T944 814ZM492 1737Q491 1690 521 1661T598 1633Q644 1635 674
1665T705 1741Q706 1788 675 1817T598 1846Q551 1844 522 1814T492 1737ZM908 1735Q908 1688 938 1659T1014 1631Q1061 1633 1091 1663T1122 1739Q1122 1787 1092 1816T1015 1845Q968 1843 939 1812T908 1735Z" />
<glyph unicode="&#xd7;" d="M129 338L231 206L610 542L874 206L1002 320L739 658L1116 991L1014 1123L637 789L377 1123L248 1008L509 674L129 338Z" />
<glyph unicode="&#xd8;" d="M1089 645L1115 810Q1122 860 1123 912T1120 1018Q1115 1071 1104 1122T1074 1221L1295 1516H1144L1010 1336Q991 1360 969 1381T920 1420Q881 1445 832 1460T722 1476Q632 1478 557 1451T420 1376Q358 1327 310 1261T226 1121Q190
1046 166 967T130 810L104 644Q96 590 95 532T101 417Q108 359 122 304T161 200L-58 -93H93L233 94Q281 43 345 13T498 -20Q588 -22 663 5T801 80Q862 128 910 194T994 335Q1029 409 1052 488T1089 645ZM281 643L309 812Q318 864 333 922T371 1037Q394 1093 425
1143T499 1233Q540 1271 592 1292T710 1312Q748 1311 779 1301T835 1272Q856 1257 872 1236T901 1191L284 364Q277 398 274 434T270 505Q270 541 273 576T281 643ZM936 814L909 644Q900 591 885 533T848 419Q825 362 794 311T722 222Q681 183 628 162T510 142Q448
144 406 168T336 233L942 1043Q949 983 946 924T936 814Z" />
<glyph unicode="&#xd9;" d="M1205 1456H1030L858 470Q846 406 818 345T747 237Q703 190 645 163T515 137Q448 139 403 169T330 247Q303 294 294 352T292 469L457 1456H285L115 469Q104 375 126 288T199 133Q249 65 326 24T503 -20Q609 -22 700 17T861 124Q931
191 977 281T1038 471L1205 1456ZM878 1549L749 1815H545L744 1549H878Z" />
<glyph unicode="&#xda;" d="M1205 1456H1030L858 470Q846 406 818 345T747 237Q703 190 645 163T515 137Q448 139 403 169T330 247Q303 294 294 352T292 469L457 1456H285L115 469Q104 375 126 288T199 133Q249 65 326 24T503 -20Q609 -22 700 17T861 124Q931
191 977 281T1038 471L1205 1456ZM935 1812L714 1546H864L1166 1812H935Z" />
<glyph unicode="&#xdb;" d="M1205 1456H1030L858 470Q846 406 818 345T747 237Q703 190 645 163T515 137Q448 139 403 169T330 247Q303 294 294 352T292 469L457 1456H285L115 469Q104 375 126 288T199 133Q249 65 326 24T503 -20Q609 -22 700 17T861 124Q931
191 977 281T1038 471L1205 1456ZM1111 1613L900 1852H794L522 1614L520 1587L673 1588L845 1737L963 1587L1109 1586L1111 1613Z" />
<glyph unicode="&#xdc;" d="M1205 1456H1030L858 470Q846 406 818 345T747 237Q703 190 645 163T515 137Q448 139 403 169T330 247Q303 294 294 352T292 469L457 1456H285L115 469Q104 375 126 288T199 133Q249 65 326 24T503 -20Q609 -22 700 17T861 124Q931
191 977 281T1038 471L1205 1456ZM512 1704Q511 1657 541 1628T618 1600Q664 1602 694 1632T725 1708Q726 1755 695 1784T618 1813Q571 1811 542 1781T512 1704ZM928 1702Q928 1655 958 1626T1034 1598Q1081 1600 1111 1630T1142 1706Q1142 1754 1112 1783T1035
1812Q988 1810 959 1779T928 1702Z" />
<glyph unicode="&#xdd;" d="M602 726L408 1456H212L491 554L397 0H565L660 532L1265 1456H1050L602 726ZM888 1823L667 1557H817L1119 1823H888Z" />
<glyph unicode="&#xde;" d="M492 1456H311L58 0H239L294 313L573 312Q674 312 767 339T933 422Q1005 476 1052 557T1108 745Q1116 843 1088 919T1003 1049Q947 1102 869 1130T697 1162L441 1163L492 1456ZM415 1011L694 1010Q752 1008 799 988T877 934Q908 899
921 851T928 744Q919 676 888 624T809 536Q762 500 702 482T577 463L320 465L415 1011Z" />
<glyph unicode="&#xdf;" d="M239 0L424 1088Q432 1140 450 1198T500 1304Q532 1351 578 1381T690 1408Q729 1406 756 1389T799 1344Q814 1316 819 1282T821 1214Q816 1176 802 1142T754 1061Q719 1011 678 947T631 816Q626 764 641 720T683 636Q708 596 738 559T793
483Q817 445 831 404T839 315Q833 273 816 239T771 180Q743 155 707 142T628 129Q569 129 512 151T407 206L353 50Q413 10 491 -6T641 -23Q720 -24 787 0T905 70Q954 116 983 180T1018 325Q1021 375 1005 418T964 500Q938 539 909 576T855 651Q831 688 818 728T813
813Q822 871 850 920T909 1017Q939 1065 965 1116T996 1229Q1002 1302 983 1362T923 1465Q883 1508 825 1532T693 1558Q591 1561 514 1522T381 1416Q325 1349 292 1263T245 1087L59 0H239Z" />
<glyph unicode="&#xe0;" d="M764 0H947L949 17Q936 71 936 126T946 236L1030 739Q1039 826 1013 893T937 1007Q886 1053 815 1077T662 1103Q588 1104 511 1085T370 1025Q305 985 261 925T208 782L389 783Q399 828 424 860T484 914Q518 935 559 945T644 954Q693
953 733 939T802 898Q830 871 843 832T851 742L838 656L632 657Q572 657 511 650T392 625Q334 607 283 579T193 511Q154 470 130 416T101 292Q97 220 121 163T191 66Q235 26 295 4T424 -19Q488 -20 546 -4T657 43Q684 59 709 78T759 118Q756 88 756 59T764 0ZM459
140Q418 141 384 153T326 188Q302 210 291 243T285 319Q289 356 303 384T339 435Q357 453 379 466T426 490Q481 512 543 519T661 526L816 525L777 305Q750 268 716 238T642 185Q601 163 555 151T459 140ZM1047 1239L918 1505H714L913 1239H1047Z" />
<glyph unicode="&#xe1;" d="M764 0H947L949 17Q936 71 936 126T946 236L1030 739Q1039 826 1013 893T937 1007Q886 1053 815 1077T662 1103Q588 1104 511 1085T370 1025Q305 985 261 925T208 782L389 783Q399 828 424 860T484 914Q518 935 559 945T644 954Q693
953 733 939T802 898Q830 871 843 832T851 742L838 656L632 657Q572 657 511 650T392 625Q334 607 283 579T193 511Q154 470 130 416T101 292Q97 220 121 163T191 66Q235 26 295 4T424 -19Q488 -20 546 -4T657 43Q684 59 709 78T759 118Q756 88 756 59T764 0ZM459
140Q418 141 384 153T326 188Q302 210 291 243T285 319Q289 356 303 384T339 435Q357 453 379 466T426 490Q481 512 543 519T661 526L816 525L777 305Q750 268 716 238T642 185Q601 163 555 151T459 140ZM848 1502L627 1236H777L1079 1502H848Z" />
<glyph unicode="&#xe2;" d="M764 0H947L949 17Q936 71 936 126T946 236L1030 739Q1039 826 1013 893T937 1007Q886 1053 815 1077T662 1103Q588 1104 511 1085T370 1025Q305 985 261 925T208 782L389 783Q399 828 424 860T484 914Q518 935 559 945T644 954Q693
953 733 939T802 898Q830 871 843 832T851 742L838 656L632 657Q572 657 511 650T392 625Q334 607 283 579T193 511Q154 470 130 416T101 292Q97 220 121 163T191 66Q235 26 295 4T424 -19Q488 -20 546 -4T657 43Q684 59 709 78T759 118Q756 88 756 59T764 0ZM459
140Q418 141 384 153T326 188Q302 210 291 243T285 319Q289 356 303 384T339 435Q357 453 379 466T426 490Q481 512 543 519T661 526L816 525L777 305Q750 268 716 238T642 185Q601 163 555 151T459 140ZM1024 1303L813 1542H707L435 1304L433 1277L586 1278L758
1427L876 1277L1022 1276L1024 1303Z" />
<glyph unicode="&#xe3;" d="M764 0H947L949 17Q936 71 936 126T946 236L1030 739Q1039 826 1013 893T937 1007Q886 1053 815 1077T662 1103Q588 1104 511 1085T370 1025Q305 985 261 925T208 782L389 783Q399 828 424 860T484 914Q518 935 559 945T644 954Q693
953 733 939T802 898Q830 871 843 832T851 742L838 656L632 657Q572 657 511 650T392 625Q334 607 283 579T193 511Q154 470 130 416T101 292Q97 220 121 163T191 66Q235 26 295 4T424 -19Q488 -20 546 -4T657 43Q684 59 709 78T759 118Q756 88 756 59T764 0ZM459
140Q418 141 384 153T326 188Q302 210 291 243T285 319Q289 356 303 384T339 435Q357 453 379 466T426 490Q481 512 543 519T661 526L816 525L777 305Q750 268 716 238T642 185Q601 163 555 151T459 140ZM1094 1522L997 1551Q991 1531 982 1512T952 1470Q937 1454
919 1447T877 1438Q840 1437 809 1452T746 1487Q715 1505 683 1521T614 1537Q566 1537 528 1518T462 1466Q434 1433 417 1391T395 1306L495 1283Q501 1304 511 1324T536 1360Q550 1375 569 1384T613 1395Q650 1396 681 1381T744 1346Q774 1327 806 1312T876 1296Q924
1296 962 1315T1029 1366Q1056 1397 1072 1437T1094 1522Z" />
<glyph unicode="&#xe4;" d="M764 0H947L949 17Q936 71 936 126T946 236L1030 739Q1039 826 1013 893T937 1007Q886 1053 815 1077T662 1103Q588 1104 511 1085T370 1025Q305 985 261 925T208 782L389 783Q399 828 424 860T484 914Q518 935 559 945T644 954Q693
953 733 939T802 898Q830 871 843 832T851 742L838 656L632 657Q572 657 511 650T392 625Q334 607 283 579T193 511Q154 470 130 416T101 292Q97 220 121 163T191 66Q235 26 295 4T424 -19Q488 -20 546 -4T657 43Q684 59 709 78T759 118Q756 88 756 59T764 0ZM459
140Q418 141 384 153T326 188Q302 210 291 243T285 319Q289 356 303 384T339 435Q357 453 379 466T426 490Q481 512 543 519T661 526L816 525L777 305Q750 268 716 238T642 185Q601 163 555 151T459 140ZM425 1394Q424 1347 454 1318T531 1290Q577 1292 607 1322T638
1398Q639 1445 608 1474T531 1503Q484 1501 455 1471T425 1394ZM841 1392Q841 1345 871 1316T947 1288Q994 1290 1024 1320T1055 1396Q1055 1444 1025 1473T948 1502Q901 1500 872 1469T841 1392Z" />
<glyph unicode="&#xe5;" d="M764 0H947L949 17Q936 71 936 126T946 236L1030 739Q1039 826 1013 893T937 1007Q886 1053 815 1077T662 1103Q588 1104 511 1085T370 1025Q305 985 261 925T208 782L389 783Q399 828 424 860T484 914Q518 935 559 945T644 954Q693
953 733 939T802 898Q830 871 843 832T851 742L838 656L632 657Q572 657 511 650T392 625Q334 607 283 579T193 511Q154 470 130 416T101 292Q97 220 121 163T191 66Q235 26 295 4T424 -19Q488 -20 546 -4T657 43Q684 59 709 78T759 118Q756 88 756 59T764 0ZM459
140Q418 141 384 153T326 188Q302 210 291 243T285 319Q289 356 303 384T339 435Q357 453 379 466T426 490Q481 512 543 519T661 526L816 525L777 305Q750 268 716 238T642 185Q601 163 555 151T459 140ZM547 1402Q546 1362 559 1328T598 1269Q623 1244 657 1230T731
1215Q774 1215 812 1230T879 1274Q907 1301 924 1338T943 1418Q944 1457 931 1492T894 1553Q870 1579 836 1594T762 1610Q719 1610 681 1594T613 1550Q584 1521 566 1483T547 1402ZM645 1405Q647 1427 657 1447T683 1484Q698 1500 718 1509T762 1519Q783 1519 799
1510T827 1487Q838 1472 843 1454T846 1415Q843 1394 834 1374T809 1339Q793 1323 774 1314T732 1305Q711 1305 695 1313T666 1334Q655 1348 649 1366T645 1405Z" />
<glyph unicode="&#xe6;" d="M776 -19Q811 -19 848 -16T921 -2Q957 7 990 23T1052 62L1017 200Q993 185 969 172T918 149Q895 141 871 137T819 132Q757 132 719 156T661 219Q641 257 637 307T639 410L651 497H1140L1174 710Q1187 792 1174 863T1128 986Q1095 1037
1040 1068T906 1102Q834 1103 775 1074T664 996Q621 1059 563 1081T438 1103Q367 1104 308 1083T204 1023Q159 983 132 927T97 800L272 792Q278 823 289 852T320 904Q338 926 364 939T427 951Q462 950 482 935T513 895Q522 871 524 842T522 784L496 635L430 636Q344
636 267 615T129 550Q69 505 32 438T-12 277Q-15 216 -1 162T45 68Q76 28 124 5T237 -20Q280 -21 318 -11T391 20Q424 39 454 66T511 125Q530 87 558 60T622 16Q656 -2 695 -10T776 -19ZM890 952Q927 950 951 934T990 891Q1004 864 1009 832T1011 769L993 640H669L681
710Q688 751 703 794T744 874Q768 909 804 931T890 952ZM279 129Q248 129 226 140T189 172Q174 192 169 218T166 273Q172 323 195 364T254 434Q289 463 333 479T427 497H481L429 202Q413 189 396 176T360 152Q341 141 321 135T279 129Z" />
<glyph unicode="&#xe7;" d="M533 129Q480 130 442 148T376 195Q349 223 333 261T310 343Q302 385 302 430T307 518L312 560Q319 609 333 657T370 749Q391 792 420 829T486 893Q525 922 572 937T677 951Q729 949 770 930T840 879Q868 846 882 803T894 710L1064
709Q1068 794 1041 865T964 989Q913 1040 842 1070T687 1102Q571 1105 475 1063T308 947Q237 870 192 770T132 560L127 517Q122 461 124 407T138 302Q154 235 186 177T264 75Q312 32 377 7T525 -21Q604 -23 684 2T830 76Q896 123 941 190T995 341L824 340Q813 291
785 252T718 185Q678 157 630 143T533 129ZM575 0H444L399 -133Q420 -136 446 -139T494 -150Q515 -159 528 -175T536 -222Q531 -254 512 -274T467 -306Q441 -318 412 -323T355 -329L351 -437Q385 -436 422 -432T495 -417Q532 -407 566 -390T626 -347Q649 -324 663
-292T678 -218Q679 -181 669 -151T637 -99Q622 -84 601 -73T554 -55L575 0Z" />
<glyph unicode="&#xe8;" d="M540 -20Q666 -22 784 30T977 187L873 275Q809 209 730 169T556 132Q483 134 430 165T345 246Q313 296 301 359T296 488H1041L1054 571Q1067 671 1052 765T992 934Q947 1008 870 1053T681 1102Q604 1104 535 1083T406 1024Q346 985
298 932T213 816Q176 753 153 684T122 543L117 500Q108 396 131 303T209 139Q263 68 346 25T540 -20ZM672 950Q731 948 775 923T847 856Q875 815 885 763T886 656L882 638L318 640Q339 698 371 755T447 856Q490 900 546 926T672 950ZM1043 1240L914 1506H710L909
1240H1043Z" />
<glyph unicode="&#xe9;" d="M540 -20Q666 -22 784 30T977 187L873 275Q809 209 730 169T556 132Q483 134 430 165T345 246Q313 296 301 359T296 488H1041L1054 571Q1067 671 1052 765T992 934Q947 1008 870 1053T681 1102Q604 1104 535 1083T406 1024Q346 985
298 932T213 816Q176 753 153 684T122 543L117 500Q108 396 131 303T209 139Q263 68 346 25T540 -20ZM672 950Q731 948 775 923T847 856Q875 815 885 763T886 656L882 638L318 640Q339 698 371 755T447 856Q490 900 546 926T672 950ZM844 1503L623 1237H773L1075
1503H844Z" />
<glyph unicode="&#xea;" d="M540 -20Q666 -22 784 30T977 187L873 275Q809 209 730 169T556 132Q483 134 430 165T345 246Q313 296 301 359T296 488H1041L1054 571Q1067 671 1052 765T992 934Q947 1008 870 1053T681 1102Q604 1104 535 1083T406 1024Q346 985
298 932T213 816Q176 753 153 684T122 543L117 500Q108 396 131 303T209 139Q263 68 346 25T540 -20ZM672 950Q731 948 775 923T847 856Q875 815 885 763T886 656L882 638L318 640Q339 698 371 755T447 856Q490 900 546 926T672 950ZM1020 1304L809 1543H703L431
1305L429 1278L582 1279L754 1428L872 1278L1018 1277L1020 1304Z" />
<glyph unicode="&#xeb;" d="M540 -20Q666 -22 784 30T977 187L873 275Q809 209 730 169T556 132Q483 134 430 165T345 246Q313 296 301 359T296 488H1041L1054 571Q1067 671 1052 765T992 934Q947 1008 870 1053T681 1102Q604 1104 535 1083T406 1024Q346 985
298 932T213 816Q176 753 153 684T122 543L117 500Q108 396 131 303T209 139Q263 68 346 25T540 -20ZM672 950Q731 948 775 923T847 856Q875 815 885 763T886 656L882 638L318 640Q339 698 371 755T447 856Q490 900 546 926T672 950ZM421 1395Q420 1348 450 1319T527
1291Q573 1293 603 1323T634 1399Q635 1446 604 1475T527 1504Q480 1502 451 1472T421 1395ZM837 1393Q837 1346 867 1317T943 1289Q990 1291 1020 1321T1051 1397Q1051 1445 1021 1474T944 1503Q897 1501 868 1470T837 1393Z" />
<glyph unicode="&#xec;" d="M280 1082L252 921H609L477 160H121L92 0H972L1001 160H658L818 1082H280ZM1084 1218L955 1484H751L950 1218H1084Z" />
<glyph unicode="&#xed;" d="M280 1082L252 921H609L477 160H121L92 0H972L1001 160H658L818 1082H280ZM885 1481L664 1215H814L1116 1481H885Z" />
<glyph unicode="&#xee;" d="M280 1082L252 921H609L477 160H121L92 0H972L1001 160H658L818 1082H280ZM1061 1282L850 1521H744L472 1283L470 1256L623 1257L795 1406L913 1256L1059 1255L1061 1282Z" />
<glyph unicode="&#xef;" d="M280 1082L252 921H609L477 160H121L92 0H972L1001 160H658L818 1082H280ZM462 1373Q461 1326 491 1297T568 1269Q614 1271 644 1301T675 1377Q676 1424 645 1453T568 1482Q521 1480 492 1450T462 1373ZM878 1371Q878 1324 908 1295T984
1267Q1031 1269 1061 1299T1092 1375Q1092 1423 1062 1452T985 1481Q938 1479 909 1448T878 1371Z" />
<glyph unicode="&#xf0;" d="M1046 912Q1038 1007 1012 1100T938 1284L1162 1399L1104 1508L854 1375Q800 1426 737 1461T602 1520L531 1363Q573 1347 611 1328T684 1281L431 1148L489 1041L776 1193Q826 1116 849 1030T870 853Q843 882 812 904T745 943Q711 959
673 967T595 977Q483 980 388 940T220 829Q148 758 104 663T49 459Q40 362 65 276T144 125Q198 60 277 22T456 -20Q543 -22 617 1T753 67Q807 105 851 157T931 267Q970 336 995 414T1031 572L1039 635Q1048 706 1050 775T1046 912ZM738 273Q691 208 625 168T469
130Q403 132 355 161T276 237Q246 283 235 341T231 459Q239 528 267 594T341 713Q387 765 449 796T587 827Q627 827 669 820T749 796Q787 779 818 753T868 687L861 635L851 571Q844 529 833 486T805 399Q792 366 775 334T738 273Z" />
<glyph unicode="&#xf1;" d="M64 0H245L380 777Q407 813 439 844T509 899Q546 921 588 933T678 945Q738 944 777 924T838 868Q859 833 864 786T864 684L749 0H930L1043 676Q1055 758 1042 838T993 976Q956 1032 894 1066T741 1102Q687 1103 638 1091T545 1054Q501
1030 462 996T390 922L413 1083L252 1082L64 0ZM1075 1522L978 1551Q972 1531 963 1512T933 1470Q918 1454 900 1447T858 1438Q821 1437 790 1452T727 1487Q696 1505 664 1521T595 1537Q547 1537 509 1518T443 1466Q415 1433 398 1391T376 1306L476 1283Q482 1304
492 1324T517 1360Q531 1375 550 1384T594 1395Q631 1396 662 1381T725 1346Q755 1327 787 1312T857 1296Q905 1296 943 1315T1010 1366Q1037 1397 1053 1437T1075 1522Z" />
<glyph unicode="&#xf2;" d="M110 544L107 522Q99 448 106 377T138 243Q154 200 178 161T234 88Q283 40 351 11T506 -20Q624 -23 720 22T888 144Q959 220 1003 321T1062 531L1064 554Q1072 626 1065 697T1036 831Q1018 883 989 928T922 1007Q877 1049 812 1074T665
1102Q549 1105 456 1062T292 947Q216 869 170 764T110 544ZM288 522L291 544Q301 616 328 689T400 822Q445 881 509 917T657 951Q735 948 783 910T856 813Q881 754 885 685T883 553L881 531Q876 474 846 394T771 256Q725 198 661 162T514 129Q444 132 396 164T324
245Q294 306 287 380T288 522ZM1037 1239L908 1505H704L903 1239H1037Z" />
<glyph unicode="&#xf3;" d="M110 544L107 522Q99 448 106 377T138 243Q154 200 178 161T234 88Q283 40 351 11T506 -20Q624 -23 720 22T888 144Q959 220 1003 321T1062 531L1064 554Q1072 626 1065 697T1036 831Q1018 883 989 928T922 1007Q877 1049 812 1074T665
1102Q549 1105 456 1062T292 947Q216 869 170 764T110 544ZM288 522L291 544Q301 616 328 689T400 822Q445 881 509 917T657 951Q735 948 783 910T856 813Q881 754 885 685T883 553L881 531Q876 474 846 394T771 256Q725 198 661 162T514 129Q444 132 396 164T324
245Q294 306 287 380T288 522ZM838 1502L617 1236H767L1069 1502H838Z" />
<glyph unicode="&#xf4;" d="M110 544L107 522Q99 448 106 377T138 243Q154 200 178 161T234 88Q283 40 351 11T506 -20Q624 -23 720 22T888 144Q959 220 1003 321T1062 531L1064 554Q1072 626 1065 697T1036 831Q1018 883 989 928T922 1007Q877 1049 812 1074T665
1102Q549 1105 456 1062T292 947Q216 869 170 764T110 544ZM288 522L291 544Q301 616 328 689T400 822Q445 881 509 917T657 951Q735 948 783 910T856 813Q881 754 885 685T883 553L881 531Q876 474 846 394T771 256Q725 198 661 162T514 129Q444 132 396 164T324
245Q294 306 287 380T288 522ZM1014 1303L803 1542H697L425 1304L423 1277L576 1278L748 1427L866 1277L1012 1276L1014 1303Z" />
<glyph unicode="&#xf5;" d="M110 544L107 522Q99 448 106 377T138 243Q154 200 178 161T234 88Q283 40 351 11T506 -20Q624 -23 720 22T888 144Q959 220 1003 321T1062 531L1064 554Q1072 626 1065 697T1036 831Q1018 883 989 928T922 1007Q877 1049 812 1074T665
1102Q549 1105 456 1062T292 947Q216 869 170 764T110 544ZM288 522L291 544Q301 616 328 689T400 822Q445 881 509 917T657 951Q735 948 783 910T856 813Q881 754 885 685T883 553L881 531Q876 474 846 394T771 256Q725 198 661 162T514 129Q444 132 396 164T324
245Q294 306 287 380T288 522ZM1084 1522L987 1551Q981 1531 972 1512T942 1470Q927 1454 909 1447T867 1438Q830 1437 799 1452T736 1487Q705 1505 673 1521T604 1537Q556 1537 518 1518T452 1466Q424 1433 407 1391T385 1306L485 1283Q491 1304 501 1324T526
1360Q540 1375 559 1384T603 1395Q640 1396 671 1381T734 1346Q764 1327 796 1312T866 1296Q914 1296 952 1315T1019 1366Q1046 1397 1062 1437T1084 1522Z" />
<glyph unicode="&#xf6;" d="M110 544L107 522Q99 448 106 377T138 243Q154 200 178 161T234 88Q283 40 351 11T506 -20Q624 -23 720 22T888 144Q959 220 1003 321T1062 531L1064 554Q1072 626 1065 697T1036 831Q1018 883 989 928T922 1007Q877 1049 812 1074T665
1102Q549 1105 456 1062T292 947Q216 869 170 764T110 544ZM288 522L291 544Q301 616 328 689T400 822Q445 881 509 917T657 951Q735 948 783 910T856 813Q881 754 885 685T883 553L881 531Q876 474 846 394T771 256Q725 198 661 162T514 129Q444 132 396 164T324
245Q294 306 287 380T288 522ZM415 1394Q414 1347 444 1318T521 1290Q567 1292 597 1322T628 1398Q629 1445 598 1474T521 1503Q474 1501 445 1471T415 1394ZM831 1392Q831 1345 861 1316T937 1288Q984 1290 1014 1320T1045 1396Q1045 1444 1015 1473T938 1502Q891
1500 862 1469T831 1392Z" />
<glyph unicode="&#xf7;" d="M1080 600L1113 784H143L111 600H1080ZM578 1094Q577 1047 607 1018T684 991Q730 993 760 1023T791 1100Q791 1145 761 1176T684 1205Q637 1203 608 1172T578 1094ZM435 279Q435 234 464 204T541 176Q587 178 617 208T648 285Q648 330
618 361T541 390Q494 388 465 357T435 279Z" />
<glyph unicode="&#xf8;" d="M110 544L107 522Q101 460 105 399T125 283Q141 227 167 178T233 90L86 -135H217L321 25Q360 5 406 -6T506 -20Q624 -23 720 22T888 144Q959 220 1003 321T1062 531L1064 554Q1070 615 1067 674T1049 790Q1034 845 1009 894T946 983L1094
1209H963L860 1051Q819 1074 771 1087T665 1102Q544 1105 448 1061T282 936Q212 856 168 755T110 544ZM288 522L291 544Q301 616 328 689T400 822Q445 881 509 917T657 951Q691 950 719 942T772 917L329 237Q312 267 302 302T287 374Q282 411 282 448T288 522ZM883
553L881 531Q870 459 843 387T771 256Q725 198 661 162T514 129Q483 130 457 137T407 157L847 830Q862 800 871 766T884 695Q888 659 888 623T883 553Z" />
<glyph unicode="&#xf9;" d="M445 -20Q550 -22 633 24T780 149L757 0H920L1108 1082H926L791 305Q765 265 734 234T667 181Q627 158 582 147T484 137Q421 139 387 167T339 238Q324 281 325 333T332 436L439 1082H258L150 439Q141 356 149 275T192 128Q225 63 286
23T445 -20ZM1032 1219L903 1485H699L898 1219H1032Z" />
<glyph unicode="&#xfa;" d="M445 -20Q550 -22 633 24T780 149L757 0H920L1108 1082H926L791 305Q765 265 734 234T667 181Q627 158 582 147T484 137Q421 139 387 167T339 238Q324 281 325 333T332 436L439 1082H258L150 439Q141 356 149 275T192 128Q225 63 286
23T445 -20ZM833 1482L612 1216H762L1064 1482H833Z" />
<glyph unicode="&#xfb;" d="M445 -20Q550 -22 633 24T780 149L757 0H920L1108 1082H926L791 305Q765 265 734 234T667 181Q627 158 582 147T484 137Q421 139 387 167T339 238Q324 281 325 333T332 436L439 1082H258L150 439Q141 356 149 275T192 128Q225 63 286
23T445 -20ZM1009 1283L798 1522H692L420 1284L418 1257L571 1258L743 1407L861 1257L1007 1256L1009 1283Z" />
<glyph unicode="&#xfc;" d="M445 -20Q550 -22 633 24T780 149L757 0H920L1108 1082H926L791 305Q765 265 734 234T667 181Q627 158 582 147T484 137Q421 139 387 167T339 238Q324 281 325 333T332 436L439 1082H258L150 439Q141 356 149 275T192 128Q225 63 286
23T445 -20ZM410 1374Q409 1327 439 1298T516 1270Q562 1272 592 1302T623 1378Q624 1425 593 1454T516 1483Q469 1481 440 1451T410 1374ZM826 1372Q826 1325 856 1296T932 1268Q979 1270 1009 1300T1040 1376Q1040 1424 1010 1453T933 1482Q886 1480 857 1449T826
1372Z" />
<glyph unicode="&#xfd;" d="M516 375L347 1082H154L425 62L322 -94Q303 -123 281 -155T232 -215Q205 -242 172 -260T100 -279Q79 -279 57 -276T13 -271L-28 -424Q1 -429 30 -434T89 -440Q154 -440 209 -418T312 -356Q358 -318 396 -269T464 -168L1212 1082H1001L537
255L516 375ZM853 1482L632 1216H782L1084 1482H853Z" />
<glyph unicode="&#xfe;" d="M723 9Q769 31 811 63T885 135Q910 166 931 200T970 272Q999 334 1017 401T1043 535L1046 556Q1052 616 1051 679T1038 803Q1026 863 1002 916T939 1011Q900 1051 845 1075T717 1102Q667 1103 622 1094T536 1065Q500 1049 467 1025T404
969L514 1558H334L-9 -416H172L269 108Q293 79 321 57T381 19Q420 -1 464 -10T556 -21Q602 -22 644 -14T723 9ZM511 130Q472 131 439 141T378 169Q351 188 330 215T292 277L383 797Q412 835 446 866T521 917Q551 931 584 938T654 945Q705 943 742 925T804 878Q829
848 843 809T864 728Q870 685 870 641T864 557L862 536Q852 465 828 392T761 260Q741 232 717 209T665 169Q633 150 595 140T511 130Z" />
<glyph unicode="&#xff;" d="M516 375L347 1082H154L425 62L322 -94Q303 -123 281 -155T232 -215Q205 -242 172 -260T100 -279Q79 -279 57 -276T13 -271L-28 -424Q1 -429 30 -434T89 -440Q154 -440 209 -418T312 -356Q358 -318 396 -269T464 -168L1212 1082H1001L537
255L516 375ZM430 1374Q429 1327 459 1298T536 1270Q582 1272 612 1302T643 1378Q644 1425 613 1454T536 1483Q489 1481 460 1451T430 1374ZM846 1372Q846 1325 876 1296T952 1268Q999 1270 1029 1300T1060 1376Q1060 1424 1030 1453T953 1482Q906 1480 877 1449T846
1372Z" />
<glyph unicode="&#x2013;" d="M1136 651L1171 802H117L82 651H1136Z" />
<glyph unicode="&#x2014;" d="M1141 651L1176 802H122L87 651H1141Z" />
<glyph unicode="&#x2018;" d="M576 1184L553 1039H729L756 1188Q771 1274 808 1348T898 1491L803 1565Q756 1528 717 1483T649 1388Q622 1341 604 1290T576 1184Z" />
<glyph unicode="&#x2019;" d="M857 1412L881 1558H704L678 1408Q662 1322 625 1248T536 1105L631 1031Q677 1067 715 1111T783 1205Q810 1252 829 1304T857 1412Z" />
<glyph unicode="&#x201a;" d="M614 77L637 225H457L430 74Q415 -12 378 -85T288 -228L387 -303Q475 -231 535 -134T614 77Z" />
<glyph unicode="&#x201c;" d="M418 1184L395 1039H571L598 1188Q613 1274 650 1348T740 1491L645 1565Q598 1528 559 1483T491 1388Q464 1341 446 1290T418 1184ZM733 1184L710 1039H886L913 1188Q928 1274 965 1348T1055 1491L960 1565Q913 1528 874 1483T806
1388Q779 1341 761 1290T733 1184Z" />
<glyph unicode="&#x201d;" d="M702 1412L726 1558H549L523 1408Q507 1322 470 1248T381 1105L476 1031Q522 1067 560 1111T628 1205Q655 1252 674 1304T702 1412ZM1024 1412L1048 1558H871L845 1408Q829 1322 792 1248T703 1105L798 1031Q844 1067 882 1111T950
1205Q977 1252 996 1304T1024 1412Z" />
<glyph unicode="&#x201e;" d="M477 76L500 223H320L293 72Q278 -14 241 -87T151 -230L250 -305Q338 -233 398 -136T477 76ZM758 76L782 223H601L575 72Q559 -14 522 -87T432 -230L531 -305Q578 -267 617 -222T687 -125Q713 -79 731 -29T758 76Z" />
<glyph unicode="&#x2022;" d="M427 784L425 725Q425 683 438 648T475 588Q499 562 533 548T609 533Q654 532 691 546T757 588Q784 614 800 650T820 731L823 789Q824 832 812 868T775 931Q751 957 716 972T638 988Q593 988 555 973T490 931Q462 903 446 866T427 784Z" />
<glyph unicode="&#x2039;" d="M547 540L875 949H724L376 560L374 540L600 153H724L547 540Z" />
<glyph unicode="&#x203a;" d="M576 949H450L628 560L300 152H452L799 542L800 562L576 949Z" />
</font>
</defs>
</svg>
